  0
SECTION
  2
HEADER
  9
$ACADVER
  1
AC1018
  9
$ACADMAINTVER
 70
   104
  9
$DWGCODEPAGE
  3
ANSI_936
  9
$LASTSAVEDBY
  1
acer
  9
$INSBASE
 10
0.0
 20
0.0
 30
0.0
  9
$EXTMIN
 10
30764.32707573085
 20
-3849.065380564527
 30
-0.0000000000044387
  9
$EXTMAX
 10
35661.5455940228
 20
-1127.326211313571
 30
0.0000000000230927
  9
$LIMMIN
 10
0.0
 20
0.0
  9
$LIMMAX
 10
420.0
 20
297.0
  9
$ORTHOMODE
 70
     0
  9
$REGENMODE
 70
     1
  9
$FILLMODE
 70
     1
  9
$QTEXTMODE
 70
     0
  9
$MIRRTEXT
 70
     0
  9
$LTSCALE
 40
1.0
  9
$ATTMODE
 70
     1
  9
$TEXTSIZE
 40
2.5
  9
$TRACEWID
 40
1.0
  9
$TEXTSTYLE
  7
Standard
  9
$CLAYER
  8
0
  9
$CELTYPE
  6
ByLayer
  9
$CECOLOR
 62
   256
  9
$CELTSCALE
 40
1.0
  9
$DISPSILH
 70
     0
  9
$DIMSCALE
 40
6.0
  9
$DIMASZ
 40
3.5
  9
$DIMEXO
 40
10.0
  9
$DIMDLI
 40
6.0
  9
$DIMRND
 40
0.0
  9
$DIMDLE
 40
0.0
  9
$DIMEXE
 40
3.0
  9
$DIMTP
 40
0.0
  9
$DIMTM
 40
0.0
  9
$DIMTXT
 40
6.0
  9
$DIMCEN
 40
0.0
  9
$DIMTSZ
 40
0.0
  9
$DIMTOL
 70
     0
  9
$DIMLIM
 70
     0
  9
$DIMTIH
 70
     0
  9
$DIMTOH
 70
     0
  9
$DIMSE1
 70
     0
  9
$DIMSE2
 70
     0
  9
$DIMTAD
 70
     1
  9
$DIMZIN
 70
    12
  9
$DIMBLK
  1

  9
$DIMASO
 70
     1
  9
$DIMSHO
 70
     1
  9
$DIMPOST
  1
\X
  9
$DIMAPOST
  1

  9
$DIMALT
 70
     1
  9
$DIMALTD
 70
     5
  9
$DIMALTF
 40
0.03937007874016
  9
$DIMLFAC
 40
1.0
  9
$DIMTOFL
 70
     1
  9
$DIMTVP
 40
0.0
  9
$DIMTIX
 70
     0
  9
$DIMSOXD
 70
     0
  9
$DIMSAH
 70
     0
  9
$DIMBLK1
  1

  9
$DIMBLK2
  1

  9
$DIMSTYLE
  2
副本 ISO-25
  9
$DIMCLRD
 70
     0
  9
$DIMCLRE
 70
     0
  9
$DIMCLRT
 70
     0
  9
$DIMTFAC
 40
1.0
  9
$DIMGAP
 40
1.0
  9
$DIMJUST
 70
     0
  9
$DIMSD1
 70
     0
  9
$DIMSD2
 70
     0
  9
$DIMTOLJ
 70
     0
  9
$DIMTZIN
 70
     8
  9
$DIMALTZ
 70
     2
  9
$DIMALTTZ
 70
     0
  9
$DIMUPT
 70
     0
  9
$DIMDEC
 70
     2
  9
$DIMTDEC
 70
     2
  9
$DIMALTU
 70
     7
  9
$DIMALTTD
 70
     5
  9
$DIMTXSTY
  7
Standard
  9
$DIMAUNIT
 70
     0
  9
$DIMADEC
 70
     0
  9
$DIMALTRND
 40
0.0
  9
$DIMAZIN
 70
     3
  9
$DIMDSEP
 70
    44
  9
$DIMATFIT
 70
     3
  9
$DIMFRAC
 70
     0
  9
$DIMLDRBLK
  1

  9
$DIMLUNIT
 70
     2
  9
$DIMLWD
 70
    -2
  9
$DIMLWE
 70
    -2
  9
$DIMTMOVE
 70
     0
  9
$LUNITS
 70
     2
  9
$LUPREC
 70
     4
  9
$SKETCHINC
 40
1.0
  9
$FILLETRAD
 40
25.0
  9
$AUNITS
 70
     0
  9
$AUPREC
 70
     0
  9
$MENU
  1
.
  9
$ELEVATION
 40
0.0
  9
$PELEVATION
 40
0.0
  9
$THICKNESS
 40
0.0
  9
$LIMCHECK
 70
     0
  9
$CHAMFERA
 40
0.0
  9
$CHAMFERB
 40
0.0
  9
$CHAMFERC
 40
0.0
  9
$CHAMFERD
 40
0.0
  9
$SKPOLY
 70
     0
  9
$TDCREATE
 40
2456958.482893693
  9
$TDUCREATE
 40
2456958.149560359
  9
$TDUPDATE
 40
2457933.808432188
  9
$TDUUPDATE
 40
2457933.475098855
  9
$TDINDWG
 40
22.6780048380
  9
$TDUSRTIMER
 40
22.6780020602
  9
$USRTIMER
 70
     1
  9
$ANGBASE
 50
0.0
  9
$ANGDIR
 70
     0
  9
$PDMODE
 70
     0
  9
$PDSIZE
 40
0.0
  9
$PLINEWID
 40
0.0
  9
$SPLFRAME
 70
     0
  9
$SPLINETYPE
 70
     6
  9
$SPLINESEGS
 70
     8
  9
$HANDSEED
  5
82FC
  9
$SURFTAB1
 70
     6
  9
$SURFTAB2
 70
     6
  9
$SURFTYPE
 70
     6
  9
$SURFU
 70
     6
  9
$SURFV
 70
     6
  9
$UCSBASE
  2

  9
$UCSNAME
  2

  9
$UCSORG
 10
0.0
 20
0.0
 30
0.0
  9
$UCSXDIR
 10
1.0
 20
0.0
 30
0.0
  9
$UCSYDIR
 10
0.0
 20
1.0
 30
0.0
  9
$UCSORTHOREF
  2

  9
$UCSORTHOVIEW
 70
     0
  9
$UCSORGTOP
 10
0.0
 20
0.0
 30
0.0
  9
$UCSORGBOTTOM
 10
0.0
 20
0.0
 30
0.0
  9
$UCSORGLEFT
 10
0.0
 20
0.0
 30
0.0
  9
$UCSORGRIGHT
 10
0.0
 20
0.0
 30
0.0
  9
$UCSORGFRONT
 10
0.0
 20
0.0
 30
0.0
  9
$UCSORGBACK
 10
0.0
 20
0.0
 30
0.0
  9
$PUCSBASE
  2

  9
$PUCSNAME
  2

  9
$PUCSORG
 10
0.0
 20
0.0
 30
0.0
  9
$PUCSXDIR
 10
1.0
 20
0.0
 30
0.0
  9
$PUCSYDIR
 10
0.0
 20
1.0
 30
0.0
  9
$PUCSORTHOREF
  2

  9
$PUCSORTHOVIEW
 70
     0
  9
$PUCSORGTOP
 10
0.0
 20
0.0
 30
0.0
  9
$PUCSORGBOTTOM
 10
0.0
 20
0.0
 30
0.0
  9
$PUCSORGLEFT
 10
0.0
 20
0.0
 30
0.0
  9
$PUCSORGRIGHT
 10
0.0
 20
0.0
 30
0.0
  9
$PUCSORGFRONT
 10
0.0
 20
0.0
 30
0.0
  9
$PUCSORGBACK
 10
0.0
 20
0.0
 30
0.0
  9
$USERI1
 70
     0
  9
$USERI2
 70
     0
  9
$USERI3
 70
     0
  9
$USERI4
 70
     0
  9
$USERI5
 70
     0
  9
$USERR1
 40
0.0
  9
$USERR2
 40
0.0
  9
$USERR3
 40
0.0
  9
$USERR4
 40
0.0
  9
$USERR5
 40
2.5
  9
$WORLDVIEW
 70
     1
  9
$SHADEDGE
 70
     3
  9
$SHADEDIF
 70
    70
  9
$TILEMODE
 70
     1
  9
$MAXACTVP
 70
    64
  9
$PINSBASE
 10
0.0
 20
0.0
 30
0.0
  9
$PLIMCHECK
 70
     0
  9
$PEXTMIN
 10
25.69999999999999
 20
19.5
 30
0.0
  9
$PEXTMAX
 10
231.3
 20
175.5
 30
0.0
  9
$PLIMMIN
 10
-20.0
 20
-7.5
  9
$PLIMMAX
 10
277.0
 20
202.5
  9
$UNITMODE
 70
     0
  9
$VISRETAIN
 70
     1
  9
$PLINEGEN
 70
     0
  9
$PSLTSCALE
 70
     1
  9
$TREEDEPTH
 70
  3020
  9
$CMLSTYLE
  2
Standard
  9
$CMLJUST
 70
     0
  9
$CMLSCALE
 40
20.0
  9
$PROXYGRAPHICS
 70
     1
  9
$MEASUREMENT
 70
     1
  9
$CELWEIGHT
370
    -1
  9
$ENDCAPS
280
     0
  9
$JOINSTYLE
280
     0
  9
$LWDISPLAY
290
     0
  9
$INSUNITS
 70
     4
  9
$HYPERLINKBASE
  1

  9
$STYLESHEET
  1

  9
$XEDIT
290
     1
  9
$CEPSNTYPE
380
     0
  9
$PSTYLEMODE
290
     1
  9
$FINGERPRINTGUID
  2
{5C30A615-91D4-4542-8252-D3AE70335CF1}
  9
$VERSIONGUID
  2
{A454C269-A6C9-4352-A0CF-43044506A5E8}
  9
$EXTNAMES
290
     1
  9
$PSVPSCALE
 40
0.0
  9
$OLESTARTUP
290
     0
  9
$SORTENTS
280
   127
  9
$INDEXCTL
280
     0
  9
$HIDETEXT
280
     1
  9
$XCLIPFRAME
290
     0
  9
$HALOGAP
280
     0
  9
$OBSCOLOR
 70
   257
  9
$OBSLTYPE
280
     0
  9
$INTERSECTIONDISPLAY
280
     0
  9
$INTERSECTIONCOLOR
 70
   257
  9
$DIMASSOC
280
     2
  9
$PROJECTNAME
  1

  0
ENDSEC
  0
SECTION
  2
CLASSES
  0
CLASS
  1
ACDBDICTIONARYWDFLT
  2
AcDbDictionaryWithDefault
  3
ObjectDBX Classes
 90
        0
 91
        1
280
     0
281
     0
  0
CLASS
  1
DICTIONARYVAR
  2
AcDbDictionaryVar
  3
ObjectDBX Classes
 90
        0
 91
        7
280
     0
281
     0
  0
CLASS
  1
TABLESTYLE
  2
AcDbTableStyle
  3
ObjectDBX Classes
 90
     4095
 91
        1
280
     0
281
     0
  0
CLASS
  1
MATERIAL
  2
AcDbMaterial
  3
ObjectDBX Classes
 90
     1024
 91
        3
280
     0
281
     0
  0
CLASS
  1
VISUALSTYLE
  2
AcDbVisualStyle
  3
ObjectDBX Classes
 90
     4095
 91
       16
280
     0
281
     0
  0
CLASS
  1
DIMASSOC
  2
AcDbDimAssoc
  3
"AcDbDimAssoc|Product Desc:     AcDim ARX App For Dimension|Company:          Autodesk, Inc.|WEB Address:      www.autodesk.com"
 90
        0
 91
       45
280
     0
281
     0
  0
CLASS
  1
SORTENTSTABLE
  2
AcDbSortentsTable
  3
ObjectDBX Classes
 90
        0
 91
        8
280
     0
281
     0
  0
CLASS
  1
VLO-VL
  2
vlo_VL
  3
VL|AutoLISP based application
 90
      129
 91
        3
280
     0
281
     0
  0
ENDSEC
  0
SECTION
  2
TABLES
  0
TABLE
  2
VPORT
  5
8
330
0
100
AcDbSymbolTable
 70
     1
  0
VPORT
  5
EB
330
8
100
AcDbSymbolTableRecord
100
AcDbViewportTableRecord
  2
*Active
 70
     0
 10
0.0
 20
0.0
 11
1.0
 21
1.0
 12
31721.58957575093
 22
-1732.82312094895
 13
0.0
 23
0.0
 14
10.0
 24
10.0
 15
10.0
 25
10.0
 16
0.0
 26
0.0
 36
1.0
 17
0.0
 27
0.0
 37
0.0
 40
1472.579704413021
 41
2.017405063291139
 42
50.0
 43
0.0
 44
0.0
 50
0.0
 51
0.0
 71
     0
 72
  1000
 73
     1
 74
     3
 75
     0
 76
     0
 77
     0
 78
     0
281
     0
 65
     1
110
0.0
120
0.0
130
0.0
111
1.0
121
0.0
131
0.0
112
0.0
122
1.0
132
0.0
 79
     0
146
0.0
  0
ENDTAB
  0
TABLE
  2
LTYPE
  5
5
330
0
100
AcDbSymbolTable
 70
     3
  0
LTYPE
  5
14
330
5
100
AcDbSymbolTableRecord
100
AcDbLinetypeTableRecord
  2
ByBlock
 70
     0
  3

 72
    65
 73
     0
 40
0.0
  0
LTYPE
  5
15
330
5
100
AcDbSymbolTableRecord
100
AcDbLinetypeTableRecord
  2
ByLayer
 70
     0
  3

 72
    65
 73
     0
 40
0.0
  0
LTYPE
  5
16
330
5
100
AcDbSymbolTableRecord
100
AcDbLinetypeTableRecord
  2
Continuous
 70
     0
  3
Solid line
 72
    65
 73
     0
 40
0.0
  0
LTYPE
  5
2DB
330
5
100
AcDbSymbolTableRecord
100
AcDbLinetypeTableRecord
  2
CENTER2
 70
     0
  3
Center (.5x) ___ _ ___ _ ___ _ ___ _ ___ _ ___
 72
    65
 73
     4
 40
28.575
 49
19.05
 74
     0
 49
-3.174999999999998
 74
     0
 49
3.174999999999998
 74
     0
 49
-3.174999999999998
 74
     0
  0
LTYPE
  5
30D8
330
5
100
AcDbSymbolTableRecord
100
AcDbLinetypeTableRecord
  2
SOLID
 70
     0
  3

 72
    65
 73
     0
 40
0.0
  0
ENDTAB
  0
TABLE
  2
LAYER
  5
2
102
{ACAD_XDICTIONARY
360
2E1
102
}
330
0
100
AcDbSymbolTable
 70
     5
  0
LAYER
  5
10
330
2
100
AcDbSymbolTableRecord
100
AcDbLayerTableRecord
  2
0
 70
     0
 62
     7
  6
Continuous
370
    -3
390
F
  0
LAYER
  5
2DC
330
2
100
AcDbSymbolTableRecord
100
AcDbLayerTableRecord
  2
LABEL
 70
     0
 62
     7
  6
Continuous
370
    -3
390
F
  0
LAYER
  5
2DD
330
2
100
AcDbSymbolTableRecord
100
AcDbLayerTableRecord
  2
DEFPOINTS
 70
     0
 62
     7
  6
Continuous
290
     0
370
    -3
390
F
  0
LAYER
  5
2DE
330
2
100
AcDbSymbolTableRecord
100
AcDbLayerTableRecord
  2
图层1
 70
     0
 62
     7
  6
CENTER2
370
    -3
390
F
  0
LAYER
  5
30D9
330
2
100
AcDbSymbolTableRecord
100
AcDbLayerTableRecord
  2
1
 70
     0
 62
     7
  6
SOLID
370
    -3
390
F
  0
ENDTAB
  0
TABLE
  2
STYLE
  5
3
330
0
100
AcDbSymbolTable
 70
     3
  0
STYLE
  5
11
330
3
100
AcDbSymbolTableRecord
100
AcDbTextStyleTableRecord
  2
Standard
 70
     0
 40
0.0
 41
1.0
 50
0.0
 71
     0
 42
2.5
  3
txt
  4
gbcbig.shx
  0
STYLE
  5
2DF
330
3
100
AcDbSymbolTableRecord
100
AcDbTextStyleTableRecord
  2
PC_TEXTSTYLE
 70
     0
 40
0.0
 41
0.8
 50
0.0
 71
     0
 42
5.0
  3
romans.shx
  4
hzfs.shx
  0
ENDTAB
  0
TABLE
  2
VIEW
  5
6
330
0
100
AcDbSymbolTable
 70
     0
  0
ENDTAB
  0
TABLE
  2
UCS
  5
7
330
0
100
AcDbSymbolTable
 70
     0
  0
ENDTAB
  0
TABLE
  2
APPID
  5
9
330
0
100
AcDbSymbolTable
 70
     6
  0
APPID
  5
12
330
9
100
AcDbSymbolTableRecord
100
AcDbRegAppTableRecord
  2
ACAD
 70
     0
  0
APPID
  5
9E
330
9
100
AcDbSymbolTableRecord
100
AcDbRegAppTableRecord
  2
ACAD_PSEXT
 70
     0
  0
APPID
  5
B0A
330
9
100
AcDbSymbolTableRecord
100
AcDbRegAppTableRecord
  2
ACAD_EXEMPT_FROM_CAD_STANDARDS
 70
     0
  0
APPID
  5
D31
330
9
100
AcDbSymbolTableRecord
100
AcDbRegAppTableRecord
  2
ACAD_DSTYLE_DIMJAG
 70
     0
  0
APPID
  5
D32
330
9
100
AcDbSymbolTableRecord
100
AcDbRegAppTableRecord
  2
ACAD_DSTYLE_DIMTALN
 70
     0
  0
APPID
  5
D33
330
9
100
AcDbSymbolTableRecord
100
AcDbRegAppTableRecord
  2
ACAD_DSTYLE_DIMRADIAL_EXTENSION
 70
     0
  0
ENDTAB
  0
TABLE
  2
DIMSTYLE
  5
A
330
0
100
AcDbSymbolTable
 70
     4
100
AcDbDimStyleTable
 71
     2
340
F3D
340
27
  0
DIMSTYLE
105
27
330
A
100
AcDbSymbolTableRecord
100
AcDbDimStyleTableRecord
  2
ISO-25
 70
     0
 40
6.0
 41
3.5
 42
1.0
 43
6.0
 44
3.0
 73
     0
 74
     0
 77
     1
 78
     4
 79
     3
140
3.5
141
3.5
143
0.03937007874016
147
1.0
170
     1
171
     0
172
     1
271
     2
272
     2
273
     5
274
     0
277
     3
278
    44
283
     0
284
     8
285
     2
340
11
  0
DIMSTYLE
105
2E0
330
A
100
AcDbSymbolTableRecord
100
AcDbDimStyleTableRecord
  2
ISO-25$4
 70
     0
 40
6.0
 41
20.0
 42
1.0
 43
6.0
 44
3.0
 77
     1
 78
     4
 79
     3
140
20.0
141
0.0
143
0.03937007874016
147
1.0
170
     1
171
     0
273
     5
274
     0
277
     3
279
     2
284
     8
285
     8
286
     8
340
11
  0
DIMSTYLE
105
F3D
102
{ACAD_REACTORS
330
7F8A
330
7F8D
330
7F90
330
7F93
330
8246
102
}
330
A
100
AcDbSymbolTableRecord
100
AcDbDimStyleTableRecord
  2
副本 ISO-25
 70
     0
  3
\X
 40
6.0
 41
3.5
 42
10.0
 43
6.0
 44
3.0
 73
     0
 74
     0
 77
     1
 78
    12
 79
     3
140
6.0
141
0.0
143
0.03937007874016
147
1.0
170
     1
171
     5
172
     1
271
     2
272
     2
273
     7
274
     5
278
    44
283
     0
284
     8
285
     2
340
11
  0
ENDTAB
  0
TABLE
  2
BLOCK_RECORD
  5
1
330
0
100
AcDbSymbolTable
 70
   181
  0
BLOCK_RECORD
  5
1F
102
{ACAD_XDICTIONARY
360
ACC
102
}
330
1
100
AcDbSymbolTableRecord
100
AcDbBlockTableRecord
  2
*Model_Space
340
22
  0
BLOCK_RECORD
  5
D2
330
1
100
AcDbSymbolTableRecord
100
AcDbBlockTableRecord
  2
*Paper_Space
340
D3
  0
BLOCK_RECORD
  5
D6
330
1
100
AcDbSymbolTableRecord
100
AcDbBlockTableRecord
  2
*Paper_Space0
340
D7
  0
BLOCK_RECORD
  5
E24
102
{ACAD_XDICTIONARY
360
E26
102
}
330
1
100
AcDbSymbolTableRecord
100
AcDbBlockTableRecord
  2
A$C2D823D5C
340
0
1001
ACAD
1000
DesignCenter Data
1002
{
1070
     1
1070
     4
1002
}
  0
BLOCK_RECORD
  5
533B
330
1
100
AcDbSymbolTableRecord
100
AcDbBlockTableRecord
  2
*D21
340
0
  0
BLOCK_RECORD
  5
5347
330
1
100
AcDbSymbolTableRecord
100
AcDbBlockTableRecord
  2
*D22
340
0
  0
BLOCK_RECORD
  5
5353
330
1
100
AcDbSymbolTableRecord
100
AcDbBlockTableRecord
  2
*D23
340
0
  0
BLOCK_RECORD
  5
535F
330
1
100
AcDbSymbolTableRecord
100
AcDbBlockTableRecord
  2
*D24
340
0
  0
BLOCK_RECORD
  5
536B
102
{ACAD_XDICTIONARY
360
538A
102
}
330
1
100
AcDbSymbolTableRecord
100
AcDbBlockTableRecord
  2
A$C7E87390C
340
0
1001
ACAD
1000
DesignCenter Data
1002
{
1070
     1
1070
     4
1002
}
  0
BLOCK_RECORD
  5
6F2D
330
1
100
AcDbSymbolTableRecord
100
AcDbBlockTableRecord
  2
*D66
340
0
  0
BLOCK_RECORD
  5
6F39
330
1
100
AcDbSymbolTableRecord
100
AcDbBlockTableRecord
  2
*D67
340
0
  0
BLOCK_RECORD
  5
6F45
330
1
100
AcDbSymbolTableRecord
100
AcDbBlockTableRecord
  2
*D68
340
0
  0
BLOCK_RECORD
  5
6F51
330
1
100
AcDbSymbolTableRecord
100
AcDbBlockTableRecord
  2
*D69
340
0
  0
BLOCK_RECORD
  5
6F5D
330
1
100
AcDbSymbolTableRecord
100
AcDbBlockTableRecord
  2
*D70
340
0
  0
BLOCK_RECORD
  5
700A
330
1
100
AcDbSymbolTableRecord
100
AcDbBlockTableRecord
  2
*D76
340
0
  0
BLOCK_RECORD
  5
7016
330
1
100
AcDbSymbolTableRecord
100
AcDbBlockTableRecord
  2
*D77
340
0
  0
BLOCK_RECORD
  5
7022
330
1
100
AcDbSymbolTableRecord
100
AcDbBlockTableRecord
  2
*D78
340
0
  0
BLOCK_RECORD
  5
702E
330
1
100
AcDbSymbolTableRecord
100
AcDbBlockTableRecord
  2
*D79
340
0
  0
BLOCK_RECORD
  5
703A
330
1
100
AcDbSymbolTableRecord
100
AcDbBlockTableRecord
  2
*D80
340
0
  0
BLOCK_RECORD
  5
7572
330
1
100
AcDbSymbolTableRecord
100
AcDbBlockTableRecord
  2
*D86
340
0
  0
BLOCK_RECORD
  5
757E
330
1
100
AcDbSymbolTableRecord
100
AcDbBlockTableRecord
  2
*D87
340
0
  0
BLOCK_RECORD
  5
758A
330
1
100
AcDbSymbolTableRecord
100
AcDbBlockTableRecord
  2
*D88
340
0
  0
BLOCK_RECORD
  5
7596
330
1
100
AcDbSymbolTableRecord
100
AcDbBlockTableRecord
  2
*D89
340
0
  0
BLOCK_RECORD
  5
75A2
330
1
100
AcDbSymbolTableRecord
100
AcDbBlockTableRecord
  2
*D90
340
0
  0
BLOCK_RECORD
  5
79E4
330
1
100
AcDbSymbolTableRecord
100
AcDbBlockTableRecord
  2
*D134
340
0
  0
BLOCK_RECORD
  5
79F0
330
1
100
AcDbSymbolTableRecord
100
AcDbBlockTableRecord
  2
*D135
340
0
  0
BLOCK_RECORD
  5
79FC
330
1
100
AcDbSymbolTableRecord
100
AcDbBlockTableRecord
  2
*D136
340
0
  0
BLOCK_RECORD
  5
7A08
330
1
100
AcDbSymbolTableRecord
100
AcDbBlockTableRecord
  2
*D137
340
0
  0
BLOCK_RECORD
  5
7A1D
330
1
100
AcDbSymbolTableRecord
100
AcDbBlockTableRecord
  2
*D138
340
0
  0
BLOCK_RECORD
  5
7A2A
330
1
100
AcDbSymbolTableRecord
100
AcDbBlockTableRecord
  2
*D139
340
0
  0
BLOCK_RECORD
  5
7A62
330
1
100
AcDbSymbolTableRecord
100
AcDbBlockTableRecord
  2
*D140
340
0
  0
BLOCK_RECORD
  5
7AE2
330
1
100
AcDbSymbolTableRecord
100
AcDbBlockTableRecord
  2
*D141
340
0
  0
BLOCK_RECORD
  5
7B4F
330
1
100
AcDbSymbolTableRecord
100
AcDbBlockTableRecord
  2
*D142
340
0
  0
BLOCK_RECORD
  5
7BE0
330
1
100
AcDbSymbolTableRecord
100
AcDbBlockTableRecord
  2
*D143
340
0
  0
BLOCK_RECORD
  5
7C2A
330
1
100
AcDbSymbolTableRecord
100
AcDbBlockTableRecord
  2
*D144
340
0
  0
BLOCK_RECORD
  5
7C62
330
1
100
AcDbSymbolTableRecord
100
AcDbBlockTableRecord
  2
*D145
340
0
  0
BLOCK_RECORD
  5
7CBE
330
1
100
AcDbSymbolTableRecord
100
AcDbBlockTableRecord
  2
*D146
340
0
  0
BLOCK_RECORD
  5
7CF6
330
1
100
AcDbSymbolTableRecord
100
AcDbBlockTableRecord
  2
*D147
340
0
  0
BLOCK_RECORD
  5
7D3B
330
1
100
AcDbSymbolTableRecord
100
AcDbBlockTableRecord
  2
*D148
340
0
  0
BLOCK_RECORD
  5
7D7A
330
1
100
AcDbSymbolTableRecord
100
AcDbBlockTableRecord
  2
*D149
340
0
  0
BLOCK_RECORD
  5
7DE5
330
1
100
AcDbSymbolTableRecord
100
AcDbBlockTableRecord
  2
*D150
340
0
  0
BLOCK_RECORD
  5
7DFD
330
1
100
AcDbSymbolTableRecord
100
AcDbBlockTableRecord
  2
*D151
340
0
  0
BLOCK_RECORD
  5
7E30
330
1
100
AcDbSymbolTableRecord
100
AcDbBlockTableRecord
  2
*D152
340
0
  0
BLOCK_RECORD
  5
7E3C
330
1
100
AcDbSymbolTableRecord
100
AcDbBlockTableRecord
  2
*D153
340
0
  0
BLOCK_RECORD
  5
7E48
330
1
100
AcDbSymbolTableRecord
100
AcDbBlockTableRecord
  2
*D154
340
0
  0
BLOCK_RECORD
  5
7F96
330
1
100
AcDbSymbolTableRecord
100
AcDbBlockTableRecord
  2
*D159
340
0
  0
BLOCK_RECORD
  5
7FA3
330
1
100
AcDbSymbolTableRecord
100
AcDbBlockTableRecord
  2
*D160
340
0
  0
BLOCK_RECORD
  5
7FB0
330
1
100
AcDbSymbolTableRecord
100
AcDbBlockTableRecord
  2
*D161
340
0
  0
BLOCK_RECORD
  5
7FBD
330
1
100
AcDbSymbolTableRecord
100
AcDbBlockTableRecord
  2
*D162
340
0
  0
BLOCK_RECORD
  5
803F
102
{ACAD_XDICTIONARY
360
8041
102
}
330
1
100
AcDbSymbolTableRecord
100
AcDbBlockTableRecord
  2
A$C0F3E0099
340
0
1001
ACAD
1000
DesignCenter Data
1002
{
1070
     1
1070
     4
1002
}
  0
BLOCK_RECORD
  5
80DD
330
1
100
AcDbSymbolTableRecord
100
AcDbBlockTableRecord
  2
*D173
340
0
  0
BLOCK_RECORD
  5
80E9
330
1
100
AcDbSymbolTableRecord
100
AcDbBlockTableRecord
  2
*D174
340
0
  0
BLOCK_RECORD
  5
80F5
330
1
100
AcDbSymbolTableRecord
100
AcDbBlockTableRecord
  2
*D175
340
0
  0
BLOCK_RECORD
  5
8101
330
1
100
AcDbSymbolTableRecord
100
AcDbBlockTableRecord
  2
*D176
340
0
  0
BLOCK_RECORD
  5
810D
330
1
100
AcDbSymbolTableRecord
100
AcDbBlockTableRecord
  2
*D177
340
0
  0
BLOCK_RECORD
  5
8226
102
{ACAD_XDICTIONARY
360
8230
102
}
330
1
100
AcDbSymbolTableRecord
100
AcDbBlockTableRecord
  2
A$C440D491C
340
0
1001
ACAD
1000
DesignCenter Data
1002
{
1070
     1
1070
     4
1002
}
  0
BLOCK_RECORD
  5
8247
330
1
100
AcDbSymbolTableRecord
100
AcDbBlockTableRecord
  2
*D179
340
0
  0
ENDTAB
  0
ENDSEC
  0
SECTION
  2
BLOCKS
  0
BLOCK
  5
20
330
1F
100
AcDbEntity
  8
0
100
AcDbBlockBegin
  2
*Model_Space
 70
     0
 10
0.0
 20
0.0
 30
0.0
  3
*Model_Space
  1

  0
ENDBLK
  5
21
330
1F
100
AcDbEntity
  8
0
100
AcDbBlockEnd
  0
BLOCK
  5
D4
330
D2
100
AcDbEntity
 67
     1
  8
0
100
AcDbBlockBegin
  2
*Paper_Space
 70
     0
 10
0.0
 20
0.0
 30
0.0
  3
*Paper_Space
  1

  0
ENDBLK
  5
D5
330
D2
100
AcDbEntity
 67
     1
  8
0
100
AcDbBlockEnd
  0
BLOCK
  5
D8
330
D6
100
AcDbEntity
 67
     1
  8
0
100
AcDbBlockBegin
  2
*Paper_Space0
 70
     0
 10
0.0
 20
0.0
 30
0.0
  3
*Paper_Space0
  1

  0
ENDBLK
  5
D9
330
D6
100
AcDbEntity
 67
     1
  8
0
100
AcDbBlockEnd
  0
BLOCK
  5
E28
330
E24
100
AcDbEntity
  8
0
100
AcDbBlockBegin
  2
A$C2D823D5C
 70
     0
 10
0.0
 20
0.0
 30
0.0
  3
A$C2D823D5C
  1

  0
MTEXT
  5
E25
330
E24
100
AcDbEntity
  8
LABEL
100
AcDbMText
 10
0.0000026739289751
 20
30.00000541705504
 30
0.0
 40
30.0
 41
652.903383324883
 71
     1
 72
     5
  1
KUD3318
 73
     1
 44
1.0
  0
ENDBLK
  5
E29
330
E24
100
AcDbEntity
  8
0
100
AcDbBlockEnd
  0
BLOCK
  5
533C
330
533B
100
AcDbEntity
  8
0
100
AcDbBlockBegin
  2
*D21
 70
     1
 10
0.0
 20
0.0
 30
0.0
  3
*D21
  1

  0
LINE
  5
533D
330
533B
100
AcDbEntity
  8
0
 62
     0
370
    -2
100
AcDbLine
 10
31845.50594619877
 20
2481.571778341063
 30
0.0
 11
31749.6081727693
 21
2481.571778341063
 31
0.0
  0
LINE
  5
533E
330
533B
100
AcDbEntity
  8
0
 62
     0
370
    -2
100
AcDbLine
 10
31845.50594619877
 20
2078.571778341063
 30
0.0
 11
31749.6081727693
 21
2078.571778341063
 31
0.0
  0
LINE
  5
533F
330
533B
100
AcDbEntity
  8
0
 62
     0
370
    -2
100
AcDbLine
 10
31767.60817276929
 20
2460.571778341063
 30
0.0
 11
31767.60817276929
 21
2099.571778341063
 31
0.0
  0
SOLID
  5
5340
330
533B
100
AcDbEntity
  8
0
 62
     0
100
AcDbTrace
 10
31764.10817276929
 20
2460.571778341063
 30
0.0
 11
31771.1081727693
 21
2460.571778341063
 31
0.0
 12
31767.60817276929
 22
2481.571778341063
 32
0.0
 13
31767.60817276929
 23
2481.571778341063
 33
0.0
  0
SOLID
  5
5341
330
533B
100
AcDbEntity
  8
0
 62
     0
100
AcDbTrace
 10
31764.10817276929
 20
2099.571778341063
 30
0.0
 11
31771.1081727693
 21
2099.571778341063
 31
0.0
 12
31767.60817276929
 22
2078.571778341063
 32
0.0
 13
31767.60817276929
 23
2078.571778341063
 33
0.0
  0
MTEXT
  5
5342
330
533B
100
AcDbEntity
  8
0
 62
     0
100
AcDbMText
 10
31743.6081727693
 20
2280.071778341068
 30
0.0
 40
36.0
 41
0.0
 71
     5
 72
     1
  1
403 [15 7/8]
 11
0.0000000000000001
 21
1.0
 31
0.0
 73
     1
 44
1.0
  0
POINT
  5
5343
330
533B
100
AcDbEntity
  8
DEFPOINTS
 62
     0
100
AcDbPoint
 10
31905.50594619877
 20
2481.571778341063
 30
0.0
  0
POINT
  5
5344
330
533B
100
AcDbEntity
  8
DEFPOINTS
 62
     0
100
AcDbPoint
 10
31905.50594619877
 20
2078.571778341063
 30
0.0
  0
POINT
  5
5345
330
533B
100
AcDbEntity
  8
DEFPOINTS
 62
     0
100
AcDbPoint
 10
31767.60817276929
 20
2078.571778341063
 30
0.0
  0
ENDBLK
  5
5346
330
533B
100
AcDbEntity
  8
0
100
AcDbBlockEnd
  0
BLOCK
  5
5348
330
5347
100
AcDbEntity
  8
0
100
AcDbBlockBegin
  2
*D22
 70
     1
 10
0.0
 20
0.0
 30
0.0
  3
*D22
  1

  0
LINE
  5
5349
330
5347
100
AcDbEntity
  8
0
 62
     0
370
    -2
100
AcDbLine
 10
31845.50594619877
 20
2506.971778341065
 30
0.0
 11
31676.98512148958
 21
2506.971778341066
 31
0.0
  0
LINE
  5
534A
330
5347
100
AcDbEntity
  8
0
 62
     0
370
    -2
100
AcDbLine
 10
31845.50594619877
 20
2053.171778341063
 30
0.0
 11
31676.98512148958
 21
2053.171778341063
 31
0.0
  0
LINE
  5
534B
330
5347
100
AcDbEntity
  8
0
 62
     0
370
    -2
100
AcDbLine
 10
31694.98512148958
 20
2485.971778341065
 30
0.0
 11
31694.98512148958
 21
2074.171778341063
 31
0.0
  0
SOLID
  5
534C
330
5347
100
AcDbEntity
  8
0
 62
     0
100
AcDbTrace
 10
31691.48512148958
 20
2485.971778341065
 30
0.0
 11
31698.48512148957
 21
2485.971778341065
 31
0.0
 12
31694.98512148958
 22
2506.971778341066
 32
0.0
 13
31694.98512148958
 23
2506.971778341066
 33
0.0
  0
SOLID
  5
534D
330
5347
100
AcDbEntity
  8
0
 62
     0
100
AcDbTrace
 10
31691.48512148958
 20
2074.171778341063
 30
0.0
 11
31698.48512148957
 21
2074.171778341063
 31
0.0
 12
31694.98512148958
 22
2053.171778341063
 32
0.0
 13
31694.98512148958
 23
2053.171778341063
 33
0.0
  0
MTEXT
  5
534E
330
5347
100
AcDbEntity
  8
0
 62
     0
100
AcDbMText
 10
31667.98512148957
 20
2280.071778341069
 30
0.0
 40
36.0
 41
0.0
 71
     5
 72
     1
  1
453,8 [17 7/8]
 11
0.0000000000000001
 21
1.0
 31
0.0
 73
     1
 44
1.0
  0
POINT
  5
534F
330
5347
100
AcDbEntity
  8
DEFPOINTS
 62
     0
100
AcDbPoint
 10
31905.50594619877
 20
2506.971778341065
 30
0.0
  0
POINT
  5
5350
330
5347
100
AcDbEntity
  8
DEFPOINTS
 62
     0
100
AcDbPoint
 10
31905.50594619877
 20
2053.171778341063
 30
0.0
  0
POINT
  5
5351
330
5347
100
AcDbEntity
  8
DEFPOINTS
 62
     0
100
AcDbPoint
 10
31694.98512148958
 20
2053.171778341063
 30
0.0
  0
ENDBLK
  5
5352
330
5347
100
AcDbEntity
  8
0
100
AcDbBlockEnd
  0
BLOCK
  5
5354
330
5353
100
AcDbEntity
  8
0
100
AcDbBlockBegin
  2
*D23
 70
     1
 10
0.0
 20
0.0
 30
0.0
  3
*D23
  1

  0
LINE
  5
5355
330
5353
100
AcDbEntity
  8
0
 62
     0
370
    -2
100
AcDbLine
 10
31845.50594619877
 20
2078.571778341063
 30
0.0
 11
31845.50594619877
 21
1943.679103064518
 31
0.0
  0
LINE
  5
5356
330
5353
100
AcDbEntity
  8
0
 62
     0
370
    -2
100
AcDbLine
 10
32558.50594619877
 20
2078.571778341063
 30
0.0
 11
32558.50594619877
 21
1943.679103064518
 31
0.0
  0
LINE
  5
5357
330
5353
100
AcDbEntity
  8
0
 62
     0
370
    -2
100
AcDbLine
 10
31866.50594619877
 20
1961.679103064518
 30
0.0
 11
32537.50594619877
 21
1961.679103064518
 31
0.0
  0
SOLID
  5
5358
330
5353
100
AcDbEntity
  8
0
 62
     0
100
AcDbTrace
 10
31866.50594619877
 20
1965.179103064518
 30
0.0
 11
31866.50594619877
 21
1958.179103064518
 31
0.0
 12
31845.50594619877
 22
1961.679103064518
 32
0.0
 13
31845.50594619877
 23
1961.679103064518
 33
0.0
  0
SOLID
  5
5359
330
5353
100
AcDbEntity
  8
0
 62
     0
100
AcDbTrace
 10
32537.50594619877
 20
1965.179103064518
 30
0.0
 11
32537.50594619877
 21
1958.179103064518
 31
0.0
 12
32558.50594619877
 22
1961.679103064518
 32
0.0
 13
32558.50594619877
 23
1961.679103064518
 33
0.0
  0
MTEXT
  5
535A
330
5353
100
AcDbEntity
  8
0
 62
     0
100
AcDbMText
 10
32159.21732293109
 20
1985.679103064518
 30
0.0
 40
36.0
 41
0.0
 71
     5
 72
     1
  1
713 [28 1/16]
 73
     1
 44
1.0
  0
POINT
  5
535B
330
5353
100
AcDbEntity
  8
DEFPOINTS
 62
     0
100
AcDbPoint
 10
31845.50594619877
 20
2138.571778341063
 30
0.0
  0
POINT
  5
535C
330
5353
100
AcDbEntity
  8
DEFPOINTS
 62
     0
100
AcDbPoint
 10
32558.50594619877
 20
2138.571778341063
 30
0.0
  0
POINT
  5
535D
330
5353
100
AcDbEntity
  8
DEFPOINTS
 62
     0
100
AcDbPoint
 10
32558.50594619877
 20
1961.679103064518
 30
0.0
  0
ENDBLK
  5
535E
330
5353
100
AcDbEntity
  8
0
100
AcDbBlockEnd
  0
BLOCK
  5
5360
330
535F
100
AcDbEntity
  8
0
100
AcDbBlockBegin
  2
*D24
 70
     1
 10
0.0
 20
0.0
 30
0.0
  3
*D24
  1

  0
LINE
  5
5361
330
535F
100
AcDbEntity
  8
0
 62
     0
370
    -2
100
AcDbLine
 10
31820.10594619877
 20
2078.571778341063
 30
0.0
 11
31820.10594619877
 21
1870.485246862172
 31
0.0
  0
LINE
  5
5362
330
535F
100
AcDbEntity
  8
0
 62
     0
370
    -2
100
AcDbLine
 10
32583.90594619877
 20
2137.184096030935
 30
0.0
 11
32583.90594619877
 21
1870.485246862172
 31
0.0
  0
LINE
  5
5363
330
535F
100
AcDbEntity
  8
0
 62
     0
370
    -2
100
AcDbLine
 10
31841.10594619877
 20
1888.485246862172
 30
0.0
 11
32562.90594619877
 21
1888.485246862172
 31
0.0
  0
SOLID
  5
5364
330
535F
100
AcDbEntity
  8
0
 62
     0
100
AcDbTrace
 10
31841.10594619877
 20
1891.985246862172
 30
0.0
 11
31841.10594619877
 21
1884.985246862172
 31
0.0
 12
31820.10594619877
 22
1888.485246862172
 32
0.0
 13
31820.10594619877
 23
1888.485246862172
 33
0.0
  0
SOLID
  5
5365
330
535F
100
AcDbEntity
  8
0
 62
     0
100
AcDbTrace
 10
32562.90594619877
 20
1891.985246862172
 30
0.0
 11
32562.90594619877
 21
1884.985246862172
 31
0.0
 12
32583.90594619877
 22
1888.485246862172
 32
0.0
 13
32583.90594619877
 23
1888.485246862172
 33
0.0
  0
MTEXT
  5
5366
330
535F
100
AcDbEntity
  8
0
 62
     0
100
AcDbMText
 10
32202.00594619877
 20
1915.485246862172
 30
0.0
 40
36.0
 41
0.0
 71
     5
 72
     1
  1
763,8 [30 1/16]
 73
     1
 44
1.0
  0
POINT
  5
5367
330
535F
100
AcDbEntity
  8
DEFPOINTS
 62
     0
100
AcDbPoint
 10
31820.10594619877
 20
2138.571778341063
 30
0.0
  0
POINT
  5
5368
330
535F
100
AcDbEntity
  8
DEFPOINTS
 62
     0
100
AcDbPoint
 10
32583.90594619877
 20
2197.184096030935
 30
0.0
  0
POINT
  5
5369
330
535F
100
AcDbEntity
  8
DEFPOINTS
 62
     0
100
AcDbPoint
 10
32583.90594619877
 20
1888.485246862172
 30
0.0
  0
ENDBLK
  5
536A
330
535F
100
AcDbEntity
  8
0
100
AcDbBlockEnd
  0
BLOCK
  5
538C
330
536B
100
AcDbEntity
  8
0
100
AcDbBlockBegin
  2
A$C7E87390C
 70
     0
 10
0.0
 20
0.0
 30
0.0
  3
A$C7E87390C
  1

  0
ARC
  5
536C
330
536B
100
AcDbEntity
  8
图层1
  6
ByBlock
100
AcDbCircle
 10
851.5208446709802
 20
551.0865302508254
 30
0.0
 40
85.4
100
AcDbArc
 50
0.0
 51
90.0
  0
LINE
  5
536D
330
536B
100
AcDbEntity
  8
图层1
  6
ByBlock
100
AcDbLine
 10
936.9208446709853
 20
551.0865302508254
 30
0.0
 11
936.9208446709853
 21
268.0865302508255
 31
0.0
  0
ARC
  5
536E
330
536B
100
AcDbEntity
  8
图层1
  6
ByBlock
100
AcDbCircle
 10
851.5208446709802
 20
268.0865302508255
 30
0.0
 40
85.4
100
AcDbArc
 50
270.0
 51
0.0
  0
LINE
  5
536F
102
{ACAD_REACTORS
330
5383
102
}
330
536B
100
AcDbEntity
  8
图层1
  6
ByBlock
100
AcDbLine
 10
851.5208446709802
 20
182.6865302508249
 30
0.0
 11
258.5208446709803
 21
182.6865302508249
 31
0.0
  0
ARC
  5
5370
330
536B
100
AcDbEntity
  8
图层1
  6
ByBlock
100
AcDbCircle
 10
258.5208446709803
 20
268.0865302508255
 30
0.0
 40
85.4
100
AcDbArc
 50
180.0
 51
270.0
  0
LINE
  5
5371
102
{ACAD_REACTORS
330
5389
102
}
330
536B
100
AcDbEntity
  8
图层1
  6
ByBlock
100
AcDbLine
 10
173.1208446709825
 20
268.0865302508255
 30
0.0
 11
173.1208446709825
 21
551.0865302508254
 31
0.0
  0
ARC
  5
5372
330
536B
100
AcDbEntity
  8
图层1
  6
ByBlock
100
AcDbCircle
 10
258.5208446709803
 20
551.0865302508254
 30
0.0
 40
85.4
100
AcDbArc
 50
90.0
 51
180.0
  0
LINE
  5
5373
102
{ACAD_REACTORS
330
5383
102
}
330
536B
100
AcDbEntity
  8
图层1
  6
ByBlock
100
AcDbLine
 10
258.5208446709803
 20
636.4865302508278
 30
0.0
 11
851.5208446709802
 21
636.4865302508278
 31
0.0
  0
CIRCLE
  5
5374
330
536B
100
AcDbEntity
  8
0
100
AcDbCircle
 10
555.0208446709802
 20
488.4130703072528
 30
0.0
 40
45.0
  0
CIRCLE
  5
5375
330
536B
100
AcDbEntity
  8
0
100
AcDbCircle
 10
555.0208446709802
 20
488.4130703072528
 30
0.0
 40
60.0
  0
ARC
  5
5376
330
536B
100
AcDbEntity
  8
图层1
  6
ByBlock
100
AcDbCircle
 10
258.5208446709803
 20
551.0865302508254
 30
0.0
 40
60.0
100
AcDbArc
 50
90.0
 51
180.0
  0
ARC
  5
5377
330
536B
100
AcDbEntity
  8
图层1
  6
ByBlock
100
AcDbCircle
 10
258.5208446709803
 20
268.0865302508255
 30
0.0
 40
60.0
100
AcDbArc
 50
180.0
 51
270.0
  0
LINE
  5
5378
102
{ACAD_REACTORS
330
5386
102
}
330
536B
100
AcDbEntity
  8
图层1
  6
ByBlock
100
AcDbLine
 10
198.5208446709803
 20
268.0865302508255
 30
0.0
 11
198.5208446709803
 21
551.0865302508254
 31
0.0
  0
LINE
  5
5379
102
{ACAD_REACTORS
330
5380
102
}
330
536B
100
AcDbEntity
  8
图层1
  6
ByBlock
100
AcDbLine
 10
851.5208446709802
 20
208.0865302508255
 30
0.0
 11
258.5208446709803
 21
208.0865302508255
 31
0.0
  0
ARC
  5
537A
330
536B
100
AcDbEntity
  8
图层1
  6
ByBlock
100
AcDbCircle
 10
851.5208446709802
 20
268.0865302508255
 30
0.0
 40
60.0
100
AcDbArc
 50
270.0
 51
0.0
  0
LINE
  5
537B
102
{ACAD_REACTORS
330
5386
102
}
330
536B
100
AcDbEntity
  8
图层1
  6
ByBlock
100
AcDbLine
 10
911.5208446709839
 20
551.0865302508254
 30
0.0
 11
911.5208446709839
 21
268.0865302508255
 31
0.0
  0
ARC
  5
537C
330
536B
100
AcDbEntity
  8
图层1
  6
ByBlock
100
AcDbCircle
 10
851.5208446709802
 20
551.0865302508254
 30
0.0
 40
60.0
100
AcDbArc
 50
0.0
 51
90.0
  0
LINE
  5
537D
102
{ACAD_REACTORS
330
5380
102
}
330
536B
100
AcDbEntity
  8
图层1
  6
ByBlock
100
AcDbLine
 10
258.5208446709803
 20
611.0865302508255
 30
0.0
 11
851.5208446709802
 21
611.0865302508255
 31
0.0
  0
DIMENSION
  5
537E
102
{ACAD_XDICTIONARY
360
537F
102
}
102
{ACAD_REACTORS
330
5380
102
}
330
536B
100
AcDbEntity
  8
0
100
AcDbDimension
  2
*D21
 10
120.623071241509
 20
208.0865302508255
 30
0.0
 11
96.62307124150903
 21
409.5865302508309
 31
0.0
 12
-31646.98510152779
 22
-1870.485248090237
 32
0.0
 71
     5
 42
403.0
  3
副本 ISO-25
100
AcDbAlignedDimension
 13
258.5208446709803
 23
611.0865302508255
 33
0.0
 14
258.5208446709803
 24
208.0865302508255
 34
0.0
 50
90.0
100
AcDbRotatedDimension
  0
DIMENSION
  5
5381
102
{ACAD_XDICTIONARY
360
5382
102
}
102
{ACAD_REACTORS
330
5383
102
}
330
536B
100
AcDbEntity
  8
0
100
AcDbDimension
  2
*D22
 10
48.00001996178981
 20
182.6865302508254
 30
0.0
 11
21.0000199617898
 21
409.5865302508318
 31
0.0
 12
-31646.98510152779
 22
-1870.485248090237
 32
0.0
 71
     5
 42
453.8000000000029
  3
副本 ISO-25
100
AcDbAlignedDimension
 13
258.5208446709803
 23
636.4865302508278
 33
0.0
 14
258.5208446709803
 24
182.6865302508249
 34
0.0
 50
90.0
100
AcDbRotatedDimension
  0
DIMENSION
  5
5384
102
{ACAD_XDICTIONARY
360
5385
102
}
102
{ACAD_REACTORS
330
5386
102
}
330
536B
100
AcDbEntity
  8
0
100
AcDbDimension
  2
*D23
 10
911.5208446709839
 20
91.19385497428083
 30
0.0
 11
512.2322214033011
 21
91.19385497428083
 31
0.0
 12
-31646.98510152779
 22
-1870.485248090237
 32
0.0
 70
   128
 71
     5
 42
713.0000000000036
  3
副本 ISO-25
100
AcDbAlignedDimension
 13
198.5208446709803
 23
268.0865302508255
 33
0.0
 14
911.5208446709839
 24
268.0865302508255
 34
0.0
100
AcDbRotatedDimension
  0
DIMENSION
  5
5387
102
{ACAD_XDICTIONARY
360
5388
102
}
102
{ACAD_REACTORS
330
5389
102
}
330
536B
100
AcDbEntity
  8
0
100
AcDbDimension
  2
*D24
 10
936.9208446709853
 20
17.99999877193477
 30
0.0
 11
555.0208446709839
 21
17.99999877193477
 31
0.0
 12
-31646.98510152779
 22
-1870.485248090237
 32
0.0
 70
   128
 71
     5
 42
763.8000000000029
  3
副本 ISO-25
100
AcDbAlignedDimension
 13
173.1208446709825
 23
268.0865302508255
 33
0.0
 14
936.9208446709853
 24
326.6988479406973
 34
0.0
100
AcDbRotatedDimension
  0
ENDBLK
  5
538D
330
536B
100
AcDbEntity
  8
0
100
AcDbBlockEnd
  0
BLOCK
  5
6F37
330
6F2D
100
AcDbEntity
  8
0
100
AcDbBlockBegin
  2
*D66
 70
     1
 10
0.0
 20
0.0
 30
0.0
  3
*D66
  1

  0
LINE
  5
7480
330
6F2D
100
AcDbEntity
  8
0
 62
     0
370
    -2
100
AcDbLine
 10
32203.68021916321
 20
-1340.121839966688
 30
0.0
 11
32203.68021916321
 21
-1151.504037974511
 31
0.0
  0
LINE
  5
7481
330
6F2D
100
AcDbEntity
  8
0
 62
     0
370
    -2
100
AcDbLine
 10
32787.68021916321
 20
-1340.121839966696
 30
0.0
 11
32787.68021916321
 21
-1151.504037974511
 31
0.0
  0
LINE
  5
7482
330
6F2D
100
AcDbEntity
  8
0
 62
     0
370
    -2
100
AcDbLine
 10
32224.68021916321
 20
-1169.504037974511
 30
0.0
 11
32766.68021916322
 21
-1169.504037974511
 31
0.0
  0
SOLID
  5
7483
330
6F2D
100
AcDbEntity
  8
0
 62
     0
100
AcDbTrace
 10
32224.68021916321
 20
-1166.004037974511
 30
0.0
 11
32224.68021916321
 21
-1173.004037974511
 31
0.0
 12
32203.68021916321
 22
-1169.504037974511
 32
0.0
 13
32203.68021916321
 23
-1169.504037974511
 33
0.0
  0
SOLID
  5
7484
330
6F2D
100
AcDbEntity
  8
0
 62
     0
100
AcDbTrace
 10
32766.68021916322
 20
-1166.004037974511
 30
0.0
 11
32766.68021916322
 21
-1173.004037974511
 31
0.0
 12
32787.68021916321
 22
-1169.504037974511
 32
0.0
 13
32787.68021916321
 23
-1169.504037974511
 33
0.0
  0
MTEXT
  5
7485
330
6F2D
100
AcDbEntity
  8
0
 62
     0
100
AcDbMText
 10
32495.68021916321
 20
-1145.504037974511
 30
0.0
 40
36.0
 41
0.0
 71
     5
 72
     1
  1
23"
 73
     1
 44
1.0
  0
POINT
  5
7486
330
6F2D
100
AcDbEntity
  8
DEFPOINTS
 62
     0
100
AcDbPoint
 10
32203.68021916321
 20
-1400.121839966688
 30
0.0
  0
POINT
  5
7487
330
6F2D
100
AcDbEntity
  8
DEFPOINTS
 62
     0
100
AcDbPoint
 10
32787.68021916321
 20
-1400.121839966696
 30
0.0
  0
POINT
  5
7488
330
6F2D
100
AcDbEntity
  8
DEFPOINTS
 62
     0
100
AcDbPoint
 10
32787.68021916321
 20
-1169.504037974511
 30
0.0
  0
ENDBLK
  5
6F38
330
6F2D
100
AcDbEntity
  8
0
100
AcDbBlockEnd
  0
BLOCK
  5
6F43
330
6F39
100
AcDbEntity
  8
0
100
AcDbBlockBegin
  2
*D67
 70
     1
 10
0.0
 20
0.0
 30
0.0
  3
*D67
  1

  0
LINE
  5
7489
330
6F39
100
AcDbEntity
  8
0
 62
     0
370
    -2
100
AcDbLine
 10
32259.08021916323
 20
-1284.721839966687
 30
0.0
 11
32080.02846483464
 21
-1284.721839966686
 31
0.0
  0
LINE
  5
748A
330
6F39
100
AcDbEntity
  8
0
 62
     0
370
    -2
100
AcDbLine
 10
32259.08021916323
 20
-1735.521839966684
 30
0.0
 11
32080.02846483464
 21
-1735.521839966684
 31
0.0
  0
LINE
  5
748B
330
6F39
100
AcDbEntity
  8
0
 62
     0
370
    -2
100
AcDbLine
 10
32098.02846483464
 20
-1305.721839966686
 30
0.0
 11
32098.02846483464
 21
-1714.521839966684
 31
0.0
  0
SOLID
  5
748C
330
6F39
100
AcDbEntity
  8
0
 62
     0
100
AcDbTrace
 10
32094.52846483463
 20
-1305.721839966686
 30
0.0
 11
32101.52846483464
 21
-1305.721839966686
 31
0.0
 12
32098.02846483464
 22
-1284.721839966686
 32
0.0
 13
32098.02846483464
 23
-1284.721839966686
 33
0.0
  0
SOLID
  5
748D
330
6F39
100
AcDbEntity
  8
0
 62
     0
100
AcDbTrace
 10
32094.52846483463
 20
-1714.521839966684
 30
0.0
 11
32101.52846483464
 21
-1714.521839966684
 31
0.0
 12
32098.02846483464
 22
-1735.521839966684
 32
0.0
 13
32098.02846483464
 23
-1735.521839966684
 33
0.0
  0
MTEXT
  5
748E
330
6F39
100
AcDbEntity
  8
0
 62
     0
100
AcDbMText
 10
32074.02846483464
 20
-1510.121839966679
 30
0.0
 40
36.0
 41
0.0
 71
     5
 72
     1
  1
18"
 11
0.0000000000000001
 21
1.0
 31
0.0
 73
     1
 44
1.0
  0
POINT
  5
748F
330
6F39
100
AcDbEntity
  8
DEFPOINTS
 62
     0
100
AcDbPoint
 10
32319.08021916323
 20
-1284.721839966687
 30
0.0
  0
POINT
  5
7490
330
6F39
100
AcDbEntity
  8
DEFPOINTS
 62
     0
100
AcDbPoint
 10
32319.08021916323
 20
-1735.521839966684
 30
0.0
  0
POINT
  5
7491
330
6F39
100
AcDbEntity
  8
DEFPOINTS
 62
     0
100
AcDbPoint
 10
32098.02846483464
 20
-1735.521839966684
 30
0.0
  0
ENDBLK
  5
6F44
330
6F39
100
AcDbEntity
  8
0
100
AcDbBlockEnd
  0
BLOCK
  5
6F4F
330
6F45
100
AcDbEntity
  8
0
100
AcDbBlockBegin
  2
*D68
 70
     1
 10
0.0
 20
0.0
 30
0.0
  3
*D68
  1

  0
LINE
  5
7492
330
6F45
100
AcDbEntity
  8
0
 62
     0
370
    -2
100
AcDbLine
 10
32259.08021916322
 20
-1310.121839966691
 30
0.0
 11
32134.76190440585
 21
-1310.121839966691
 31
0.0
  0
LINE
  5
7493
330
6F45
100
AcDbEntity
  8
0
 62
     0
370
    -2
100
AcDbLine
 10
32259.08021916322
 20
-1710.121839966692
 30
0.0
 11
32134.76190440585
 21
-1710.121839966692
 31
0.0
  0
LINE
  5
7494
330
6F45
100
AcDbEntity
  8
0
 62
     0
370
    -2
100
AcDbLine
 10
32152.76190440586
 20
-1331.121839966691
 30
0.0
 11
32152.76190440586
 21
-1689.121839966692
 31
0.0
  0
SOLID
  5
7495
330
6F45
100
AcDbEntity
  8
0
 62
     0
100
AcDbTrace
 10
32149.26190440586
 20
-1331.121839966691
 30
0.0
 11
32156.26190440586
 21
-1331.121839966691
 31
0.0
 12
32152.76190440586
 22
-1310.121839966691
 32
0.0
 13
32152.76190440586
 23
-1310.121839966691
 33
0.0
  0
SOLID
  5
7496
330
6F45
100
AcDbEntity
  8
0
 62
     0
100
AcDbTrace
 10
32149.26190440586
 20
-1689.121839966692
 30
0.0
 11
32156.26190440586
 21
-1689.121839966692
 31
0.0
 12
32152.76190440586
 22
-1710.121839966692
 32
0.0
 13
32152.76190440586
 23
-1710.121839966692
 33
0.0
  0
MTEXT
  5
7497
330
6F45
100
AcDbEntity
  8
0
 62
     0
100
AcDbMText
 10
32128.76190440586
 20
-1510.121839966685
 30
0.0
 40
36.0
 41
0.0
 71
     5
 72
     1
  1
16"
 11
0.0000000000000001
 21
1.0
 31
0.0
 73
     1
 44
1.0
  0
POINT
  5
7498
330
6F45
100
AcDbEntity
  8
DEFPOINTS
 62
     0
100
AcDbPoint
 10
32319.08021916322
 20
-1310.121839966691
 30
0.0
  0
POINT
  5
7499
330
6F45
100
AcDbEntity
  8
DEFPOINTS
 62
     0
100
AcDbPoint
 10
32319.08021916322
 20
-1710.121839966692
 30
0.0
  0
POINT
  5
749A
330
6F45
100
AcDbEntity
  8
DEFPOINTS
 62
     0
100
AcDbPoint
 10
32152.76190440586
 20
-1710.121839966692
 30
0.0
  0
ENDBLK
  5
6F50
330
6F45
100
AcDbEntity
  8
0
100
AcDbBlockEnd
  0
BLOCK
  5
6F5B
330
6F51
100
AcDbEntity
  8
0
100
AcDbBlockBegin
  2
*D69
 70
     1
 10
0.0
 20
0.0
 30
0.0
  3
*D69
  1

  0
LINE
  5
749B
330
6F51
100
AcDbEntity
  8
0
 62
     0
370
    -2
100
AcDbLine
 10
32229.08021916322
 20
-1340.121839966691
 30
0.0
 11
32229.08021916322
 21
-1212.471682215397
 31
0.0
  0
LINE
  5
749C
330
6F51
100
AcDbEntity
  8
0
 62
     0
370
    -2
100
AcDbLine
 10
32762.28021916322
 20
-1340.121839966691
 30
0.0
 11
32762.28021916322
 21
-1212.471682215397
 31
0.0
  0
LINE
  5
749D
330
6F51
100
AcDbEntity
  8
0
 62
     0
370
    -2
100
AcDbLine
 10
32250.08021916322
 20
-1230.471682215397
 30
0.0
 11
32741.28021916322
 21
-1230.471682215397
 31
0.0
  0
SOLID
  5
749E
330
6F51
100
AcDbEntity
  8
0
 62
     0
100
AcDbTrace
 10
32250.08021916322
 20
-1226.971682215397
 30
0.0
 11
32250.08021916322
 21
-1233.971682215397
 31
0.0
 12
32229.08021916322
 22
-1230.471682215397
 32
0.0
 13
32229.08021916322
 23
-1230.471682215397
 33
0.0
  0
SOLID
  5
749F
330
6F51
100
AcDbEntity
  8
0
 62
     0
100
AcDbTrace
 10
32741.28021916322
 20
-1226.971682215397
 30
0.0
 11
32741.28021916322
 21
-1233.971682215397
 31
0.0
 12
32762.28021916322
 22
-1230.471682215397
 32
0.0
 13
32762.28021916322
 23
-1230.471682215397
 33
0.0
  0
MTEXT
  5
74A0
330
6F51
100
AcDbEntity
  8
0
 62
     0
100
AcDbMText
 10
32495.68021916322
 20
-1206.471682215397
 30
0.0
 40
36.0
 41
0.0
 71
     5
 72
     1
  1
21"
 73
     1
 44
1.0
  0
POINT
  5
74A1
330
6F51
100
AcDbEntity
  8
DEFPOINTS
 62
     0
100
AcDbPoint
 10
32229.08021916322
 20
-1400.121839966691
 30
0.0
  0
POINT
  5
74A2
330
6F51
100
AcDbEntity
  8
DEFPOINTS
 62
     0
100
AcDbPoint
 10
32762.28021916322
 20
-1400.121839966691
 30
0.0
  0
POINT
  5
74A3
330
6F51
100
AcDbEntity
  8
DEFPOINTS
 62
     0
100
AcDbPoint
 10
32762.28021916322
 20
-1230.471682215397
 30
0.0
  0
ENDBLK
  5
6F5C
330
6F51
100
AcDbEntity
  8
0
100
AcDbBlockEnd
  0
BLOCK
  5
6F67
330
6F5D
100
AcDbEntity
  8
0
100
AcDbBlockBegin
  2
*D70
 70
     1
 10
0.0
 20
0.0
 30
0.0
  3
*D70
  1

  0
LINE
  5
74A4
330
6F5D
100
AcDbEntity
  8
0
 62
     0
370
    -2
100
AcDbLine
 10
32143.68021916321
 20
-1902.501157243136
 30
0.0
 11
32065.33463821429
 21
-1902.501157243136
 31
0.0
  0
LINE
  5
74A5
330
6F5D
100
AcDbEntity
  8
0
 62
     0
370
    -2
100
AcDbLine
 10
32143.68021916321
 20
-2132.501157243135
 30
0.0
 11
32065.33463821429
 21
-2132.501157243135
 31
0.0
  0
LINE
  5
74A6
330
6F5D
100
AcDbEntity
  8
0
 62
     0
370
    -2
100
AcDbLine
 10
32083.33463821429
 20
-1923.501157243135
 30
0.0
 11
32083.33463821429
 21
-2111.501157243135
 31
0.0
  0
SOLID
  5
74A7
330
6F5D
100
AcDbEntity
  8
0
 62
     0
100
AcDbTrace
 10
32079.83463821429
 20
-1923.501157243135
 30
0.0
 11
32086.83463821429
 21
-1923.501157243135
 31
0.0
 12
32083.33463821429
 22
-1902.501157243136
 32
0.0
 13
32083.33463821429
 23
-1902.501157243136
 33
0.0
  0
SOLID
  5
74A8
330
6F5D
100
AcDbEntity
  8
0
 62
     0
100
AcDbTrace
 10
32079.83463821429
 20
-2111.501157243135
 30
0.0
 11
32086.83463821429
 21
-2111.501157243135
 31
0.0
 12
32083.33463821429
 22
-2132.501157243135
 32
0.0
 13
32083.33463821429
 23
-2132.501157243135
 33
0.0
  0
MTEXT
  5
74A9
330
6F5D
100
AcDbEntity
  8
0
 62
     0
100
AcDbMText
 10
32059.33463821429
 20
-2017.501157243131
 30
0.0
 40
36.0
 41
0.0
 71
     5
 72
     1
  1
9"
 11
0.0000000000000001
 21
1.0
 31
0.0
 73
     1
 44
1.0
  0
POINT
  5
74AA
330
6F5D
100
AcDbEntity
  8
DEFPOINTS
 62
     0
100
AcDbPoint
 10
32203.68021916321
 20
-1902.501157243136
 30
0.0
  0
POINT
  5
74AB
330
6F5D
100
AcDbEntity
  8
DEFPOINTS
 62
     0
100
AcDbPoint
 10
32203.68021916321
 20
-2132.501157243135
 30
0.0
  0
POINT
  5
74AC
330
6F5D
100
AcDbEntity
  8
DEFPOINTS
 62
     0
100
AcDbPoint
 10
32083.33463821429
 20
-2132.501157243135
 30
0.0
  0
ENDBLK
  5
6F68
330
6F5D
100
AcDbEntity
  8
0
100
AcDbBlockEnd
  0
BLOCK
  5
7014
330
700A
100
AcDbEntity
  8
0
100
AcDbBlockBegin
  2
*D76
 70
     1
 10
0.0
 20
0.0
 30
0.0
  3
*D76
  1

  0
LINE
  5
74AD
330
700A
100
AcDbEntity
  8
0
 62
     0
370
    -2
100
AcDbLine
 10
33577.71001269347
 20
-1182.17831422846
 30
0.0
 11
33196.08964424679
 21
-1182.17831422846
 31
0.0
  0
LINE
  5
74AE
330
700A
100
AcDbEntity
  8
0
 62
     0
370
    -2
100
AcDbLine
 10
33577.71001269347
 20
-1712.17831422846
 30
0.0
 11
33196.08964424679
 21
-1712.17831422846
 31
0.0
  0
LINE
  5
74AF
330
700A
100
AcDbEntity
  8
0
 62
     0
370
    -2
100
AcDbLine
 10
33214.08964424679
 20
-1203.17831422846
 30
0.0
 11
33214.08964424679
 21
-1691.17831422846
 31
0.0
  0
SOLID
  5
74B0
330
700A
100
AcDbEntity
  8
0
 62
     0
100
AcDbTrace
 10
33210.58964424679
 20
-1203.17831422846
 30
0.0
 11
33217.58964424679
 21
-1203.17831422846
 31
0.0
 12
33214.08964424679
 22
-1182.17831422846
 32
0.0
 13
33214.08964424679
 23
-1182.17831422846
 33
0.0
  0
SOLID
  5
74B1
330
700A
100
AcDbEntity
  8
0
 62
     0
100
AcDbTrace
 10
33210.58964424679
 20
-1691.17831422846
 30
0.0
 11
33217.58964424679
 21
-1691.17831422846
 31
0.0
 12
33214.08964424679
 22
-1712.17831422846
 32
0.0
 13
33214.08964424679
 23
-1712.17831422846
 33
0.0
  0
MTEXT
  5
74B2
330
700A
100
AcDbEntity
  8
0
 62
     0
100
AcDbMText
 10
33190.08964424678
 20
-1447.178314228455
 30
0.0
 40
36.0
 41
0.0
 71
     5
 72
     1
  1
21"
 11
0.0000000000000001
 21
1.0
 31
0.0
 73
     1
 44
1.0
  0
POINT
  5
74B3
330
700A
100
AcDbEntity
  8
DEFPOINTS
 62
     0
100
AcDbPoint
 10
33637.71001269347
 20
-1182.17831422846
 30
0.0
  0
POINT
  5
74B4
330
700A
100
AcDbEntity
  8
DEFPOINTS
 62
     0
100
AcDbPoint
 10
33637.71001269347
 20
-1712.17831422846
 30
0.0
  0
POINT
  5
74B5
330
700A
100
AcDbEntity
  8
DEFPOINTS
 62
     0
100
AcDbPoint
 10
33214.08964424679
 20
-1712.17831422846
 30
0.0
  0
ENDBLK
  5
7015
330
700A
100
AcDbEntity
  8
0
100
AcDbBlockEnd
  0
BLOCK
  5
7020
330
7016
100
AcDbEntity
  8
0
100
AcDbBlockBegin
  2
*D77
 70
     1
 10
0.0
 20
0.0
 30
0.0
  3
*D77
  1

  0
LINE
  5
74B6
330
7016
100
AcDbEntity
  8
0
 62
     0
370
    -2
100
AcDbLine
 10
33577.71001269347
 20
-1207.17831422846
 30
0.0
 11
33278.42092733392
 21
-1207.17831422846
 31
0.0
  0
LINE
  5
74B7
330
7016
100
AcDbEntity
  8
0
 62
     0
370
    -2
100
AcDbLine
 10
33577.71001269347
 20
-1687.17831422846
 30
0.0
 11
33278.42092733392
 21
-1687.17831422846
 31
0.0
  0
LINE
  5
74B8
330
7016
100
AcDbEntity
  8
0
 62
     0
370
    -2
100
AcDbLine
 10
33296.42092733392
 20
-1228.17831422846
 30
0.0
 11
33296.42092733392
 21
-1666.17831422846
 31
0.0
  0
SOLID
  5
74B9
330
7016
100
AcDbEntity
  8
0
 62
     0
100
AcDbTrace
 10
33292.92092733392
 20
-1228.17831422846
 30
0.0
 11
33299.92092733391
 21
-1228.17831422846
 31
0.0
 12
33296.42092733392
 22
-1207.17831422846
 32
0.0
 13
33296.42092733392
 23
-1207.17831422846
 33
0.0
  0
SOLID
  5
74BA
330
7016
100
AcDbEntity
  8
0
 62
     0
100
AcDbTrace
 10
33292.92092733392
 20
-1666.17831422846
 30
0.0
 11
33299.92092733391
 21
-1666.17831422846
 31
0.0
 12
33296.42092733392
 22
-1687.17831422846
 32
0.0
 13
33296.42092733392
 23
-1687.17831422846
 33
0.0
  0
MTEXT
  5
74BB
330
7016
100
AcDbEntity
  8
0
 62
     0
100
AcDbMText
 10
33272.42092733392
 20
-1447.178314228455
 30
0.0
 40
36.0
 41
0.0
 71
     5
 72
     1
  1
19"
 11
0.0000000000000001
 21
1.0
 31
0.0
 73
     1
 44
1.0
  0
POINT
  5
74BC
330
7016
100
AcDbEntity
  8
DEFPOINTS
 62
     0
100
AcDbPoint
 10
33637.71001269347
 20
-1207.17831422846
 30
0.0
  0
POINT
  5
74BD
330
7016
100
AcDbEntity
  8
DEFPOINTS
 62
     0
100
AcDbPoint
 10
33637.71001269347
 20
-1687.17831422846
 30
0.0
  0
POINT
  5
74BE
330
7016
100
AcDbEntity
  8
DEFPOINTS
 62
     0
100
AcDbPoint
 10
33296.42092733392
 20
-1687.17831422846
 30
0.0
  0
ENDBLK
  5
7021
330
7016
100
AcDbEntity
  8
0
100
AcDbBlockEnd
  0
BLOCK
  5
702C
330
7022
100
AcDbEntity
  8
0
100
AcDbBlockBegin
  2
*D78
 70
     1
 10
0.0
 20
0.0
 30
0.0
  3
*D78
  1

  0
LINE
  5
74D1
330
7022
100
AcDbEntity
  8
0
 62
     0
370
    -2
100
AcDbLine
 10
33910.21001269346
 20
-1567.17831422846
 30
0.0
 11
33910.21001269346
 21
-1788.36705179594
 31
0.0
  0
LINE
  5
74D2
330
7022
100
AcDbEntity
  8
0
 62
     0
370
    -2
100
AcDbLine
 10
33365.21001269347
 20
-1567.17831422846
 30
0.0
 11
33365.21001269347
 21
-1788.36705179594
 31
0.0
  0
LINE
  5
74D3
330
7022
100
AcDbEntity
  8
0
 62
     0
370
    -2
100
AcDbLine
 10
33889.21001269346
 20
-1770.36705179594
 30
0.0
 11
33386.21001269347
 21
-1770.36705179594
 31
0.0
  0
SOLID
  5
74D4
330
7022
100
AcDbEntity
  8
0
 62
     0
100
AcDbTrace
 10
33889.21001269346
 20
-1766.86705179594
 30
0.0
 11
33889.21001269346
 21
-1773.86705179594
 31
0.0
 12
33910.21001269346
 22
-1770.36705179594
 32
0.0
 13
33910.21001269346
 23
-1770.36705179594
 33
0.0
  0
SOLID
  5
74D5
330
7022
100
AcDbEntity
  8
0
 62
     0
100
AcDbTrace
 10
33386.21001269347
 20
-1766.86705179594
 30
0.0
 11
33386.21001269347
 21
-1773.86705179594
 31
0.0
 12
33365.21001269347
 22
-1770.36705179594
 32
0.0
 13
33365.21001269347
 23
-1770.36705179594
 33
0.0
  0
MTEXT
  5
74D6
330
7022
100
AcDbEntity
  8
0
 62
     0
100
AcDbMText
 10
33637.71001269346
 20
-1746.36705179594
 30
0.0
 40
36.0
 41
0.0
 71
     5
 72
     1
  1
21 1/2"
 73
     1
 44
1.0
  0
POINT
  5
74D7
330
7022
100
AcDbEntity
  8
DEFPOINTS
 62
     0
100
AcDbPoint
 10
33910.21001269346
 20
-1507.17831422846
 30
0.0
  0
POINT
  5
74D8
330
7022
100
AcDbEntity
  8
DEFPOINTS
 62
     0
100
AcDbPoint
 10
33365.21001269347
 20
-1507.17831422846
 30
0.0
  0
POINT
  5
74D9
330
7022
100
AcDbEntity
  8
DEFPOINTS
 62
     0
100
AcDbPoint
 10
33365.21001269347
 20
-1770.36705179594
 30
0.0
  0
ENDBLK
  5
702D
330
7022
100
AcDbEntity
  8
0
100
AcDbBlockEnd
  0
BLOCK
  5
7038
330
702E
100
AcDbEntity
  8
0
100
AcDbBlockBegin
  2
*D79
 70
     1
 10
0.0
 20
0.0
 30
0.0
  3
*D79
  1

  0
LINE
  5
74BF
330
702E
100
AcDbEntity
  8
0
 62
     0
370
    -2
100
AcDbLine
 10
33935.21001269346
 20
-1567.17831422846
 30
0.0
 11
33935.21001269346
 21
-1875.865493155394
 31
0.0
  0
LINE
  5
74C0
330
702E
100
AcDbEntity
  8
0
 62
     0
370
    -2
100
AcDbLine
 10
33340.21001269347
 20
-1567.17831422846
 30
0.0
 11
33340.21001269347
 21
-1875.865493155394
 31
0.0
  0
LINE
  5
74C1
330
702E
100
AcDbEntity
  8
0
 62
     0
370
    -2
100
AcDbLine
 10
33914.21001269346
 20
-1857.865493155394
 30
0.0
 11
33361.21001269347
 21
-1857.865493155394
 31
0.0
  0
SOLID
  5
74C2
330
702E
100
AcDbEntity
  8
0
 62
     0
100
AcDbTrace
 10
33914.21001269346
 20
-1854.365493155394
 30
0.0
 11
33914.21001269346
 21
-1861.365493155394
 31
0.0
 12
33935.21001269346
 22
-1857.865493155394
 32
0.0
 13
33935.21001269346
 23
-1857.865493155394
 33
0.0
  0
SOLID
  5
74C3
330
702E
100
AcDbEntity
  8
0
 62
     0
100
AcDbTrace
 10
33361.21001269347
 20
-1854.365493155394
 30
0.0
 11
33361.21001269347
 21
-1861.365493155394
 31
0.0
 12
33340.21001269347
 22
-1857.865493155394
 32
0.0
 13
33340.21001269347
 23
-1857.865493155394
 33
0.0
  0
MTEXT
  5
74C4
330
702E
100
AcDbEntity
  8
0
 62
     0
100
AcDbMText
 10
33637.71001269346
 20
-1833.865493155394
 30
0.0
 40
36.0
 41
0.0
 71
     5
 72
     1
  1
23 1/2"
 73
     1
 44
1.0
  0
POINT
  5
74C5
330
702E
100
AcDbEntity
  8
DEFPOINTS
 62
     0
100
AcDbPoint
 10
33935.21001269346
 20
-1507.17831422846
 30
0.0
  0
POINT
  5
74C6
330
702E
100
AcDbEntity
  8
DEFPOINTS
 62
     0
100
AcDbPoint
 10
33340.21001269347
 20
-1507.17831422846
 30
0.0
  0
POINT
  5
74C7
330
702E
100
AcDbEntity
  8
DEFPOINTS
 62
     0
100
AcDbPoint
 10
33340.21001269347
 20
-1857.865493155394
 30
0.0
  0
ENDBLK
  5
7039
330
702E
100
AcDbEntity
  8
0
100
AcDbBlockEnd
  0
BLOCK
  5
7044
330
703A
100
AcDbEntity
  8
0
100
AcDbBlockBegin
  2
*D80
 70
     1
 10
0.0
 20
0.0
 30
0.0
  3
*D80
  1

  0
LINE
  5
74C8
330
703A
100
AcDbEntity
  8
0
 62
     0
370
    -2
100
AcDbLine
 10
33280.21001269347
 20
-1928.834707225233
 30
0.0
 11
33201.86443174455
 21
-1928.834707225232
 31
0.0
  0
LINE
  5
74C9
330
703A
100
AcDbEntity
  8
0
 62
     0
370
    -2
100
AcDbLine
 10
33280.21001269347
 20
-2158.834707225232
 30
0.0
 11
33201.86443174455
 21
-2158.834707225232
 31
0.0
  0
LINE
  5
74CA
330
703A
100
AcDbEntity
  8
0
 62
     0
370
    -2
100
AcDbLine
 10
33219.86443174455
 20
-1949.834707225232
 30
0.0
 11
33219.86443174455
 21
-2137.834707225232
 31
0.0
  0
SOLID
  5
74CB
330
703A
100
AcDbEntity
  8
0
 62
     0
100
AcDbTrace
 10
33216.36443174455
 20
-1949.834707225232
 30
0.0
 11
33223.36443174455
 21
-1949.834707225232
 31
0.0
 12
33219.86443174455
 22
-1928.834707225232
 32
0.0
 13
33219.86443174455
 23
-1928.834707225232
 33
0.0
  0
SOLID
  5
74CC
330
703A
100
AcDbEntity
  8
0
 62
     0
100
AcDbTrace
 10
33216.36443174455
 20
-2137.834707225232
 30
0.0
 11
33223.36443174455
 21
-2137.834707225232
 31
0.0
 12
33219.86443174455
 22
-2158.834707225232
 32
0.0
 13
33219.86443174455
 23
-2158.834707225232
 33
0.0
  0
MTEXT
  5
74CD
330
703A
100
AcDbEntity
  8
0
 62
     0
100
AcDbMText
 10
33195.86443174455
 20
-2043.834707225227
 30
0.0
 40
36.0
 41
0.0
 71
     5
 72
     1
  1
9"
 11
0.0000000000000001
 21
1.0
 31
0.0
 73
     1
 44
1.0
  0
POINT
  5
74CE
330
703A
100
AcDbEntity
  8
DEFPOINTS
 62
     0
100
AcDbPoint
 10
33340.21001269347
 20
-1928.834707225233
 30
0.0
  0
POINT
  5
74CF
330
703A
100
AcDbEntity
  8
DEFPOINTS
 62
     0
100
AcDbPoint
 10
33340.21001269348
 20
-2158.834707225232
 30
0.0
  0
POINT
  5
74D0
330
703A
100
AcDbEntity
  8
DEFPOINTS
 62
     0
100
AcDbPoint
 10
33219.86443174455
 20
-2158.834707225232
 30
0.0
  0
ENDBLK
  5
7045
330
703A
100
AcDbEntity
  8
0
100
AcDbBlockEnd
  0
BLOCK
  5
757C
330
7572
100
AcDbEntity
  8
0
100
AcDbBlockBegin
  2
*D86
 70
     1
 10
0.0
 20
0.0
 30
0.0
  3
*D86
  1

  0
LINE
  5
7EED
330
7572
100
AcDbEntity
  8
0
 62
     0
370
    -2
100
AcDbLine
 10
34661.92849939051
 20
-1168.248080526328
 30
0.0
 11
34566.03072596104
 21
-1168.248080526328
 31
0.0
  0
LINE
  5
7EEE
330
7572
100
AcDbEntity
  8
0
 62
     0
370
    -2
100
AcDbLine
 10
34661.92849939051
 20
-1571.248080526328
 30
0.0
 11
34566.03072596104
 21
-1571.248080526328
 31
0.0
  0
LINE
  5
7EEF
330
7572
100
AcDbEntity
  8
0
 62
     0
370
    -2
100
AcDbLine
 10
34584.03072596104
 20
-1189.248080526328
 30
0.0
 11
34584.03072596104
 21
-1550.248080526328
 31
0.0
  0
SOLID
  5
7EF0
330
7572
100
AcDbEntity
  8
0
 62
     0
100
AcDbTrace
 10
34580.53072596104
 20
-1189.248080526328
 30
0.0
 11
34587.53072596104
 21
-1189.248080526328
 31
0.0
 12
34584.03072596104
 22
-1168.248080526328
 32
0.0
 13
34584.03072596104
 23
-1168.248080526328
 33
0.0
  0
SOLID
  5
7EF1
330
7572
100
AcDbEntity
  8
0
 62
     0
100
AcDbTrace
 10
34580.53072596104
 20
-1550.248080526328
 30
0.0
 11
34587.53072596104
 21
-1550.248080526328
 31
0.0
 12
34584.03072596104
 22
-1571.248080526328
 32
0.0
 13
34584.03072596104
 23
-1571.248080526328
 33
0.0
  0
MTEXT
  5
7EF2
330
7572
100
AcDbEntity
  8
0
 62
     0
100
AcDbMText
 10
34560.03072596104
 20
-1369.748080526323
 30
0.0
 40
36.0
 41
0.0
 71
     5
 72
     1
  1
16"
 11
0.0000000000000001
 21
1.0
 31
0.0
 73
     1
 44
1.0
  0
POINT
  5
7EF3
330
7572
100
AcDbEntity
  8
DEFPOINTS
 62
     0
100
AcDbPoint
 10
34721.92849939051
 20
-1168.248080526328
 30
0.0
  0
POINT
  5
7EF4
330
7572
100
AcDbEntity
  8
DEFPOINTS
 62
     0
100
AcDbPoint
 10
34721.92849939051
 20
-1571.248080526328
 30
0.0
  0
POINT
  5
7EF5
330
7572
100
AcDbEntity
  8
DEFPOINTS
 62
     0
100
AcDbPoint
 10
34584.03072596104
 20
-1571.248080526328
 30
0.0
  0
ENDBLK
  5
757D
330
7572
100
AcDbEntity
  8
0
100
AcDbBlockEnd
  0
BLOCK
  5
7588
330
757E
100
AcDbEntity
  8
0
100
AcDbBlockBegin
  2
*D87
 70
     1
 10
0.0
 20
0.0
 30
0.0
  3
*D87
  1

  0
LINE
  5
7EF6
330
757E
100
AcDbEntity
  8
0
 62
     0
370
    -2
100
AcDbLine
 10
34661.92849939051
 20
-1142.848080526326
 30
0.0
 11
34493.40767468132
 21
-1142.848080526326
 31
0.0
  0
LINE
  5
7EF7
330
757E
100
AcDbEntity
  8
0
 62
     0
370
    -2
100
AcDbLine
 10
34661.92849939051
 20
-1596.648080526329
 30
0.0
 11
34493.40767468132
 21
-1596.648080526329
 31
0.0
  0
LINE
  5
7EF8
330
757E
100
AcDbEntity
  8
0
 62
     0
370
    -2
100
AcDbLine
 10
34511.40767468132
 20
-1163.848080526326
 30
0.0
 11
34511.40767468132
 21
-1575.648080526329
 31
0.0
  0
SOLID
  5
7EF9
330
757E
100
AcDbEntity
  8
0
 62
     0
100
AcDbTrace
 10
34507.90767468133
 20
-1163.848080526326
 30
0.0
 11
34514.90767468132
 21
-1163.848080526326
 31
0.0
 12
34511.40767468132
 22
-1142.848080526326
 32
0.0
 13
34511.40767468132
 23
-1142.848080526326
 33
0.0
  0
SOLID
  5
7EFA
330
757E
100
AcDbEntity
  8
0
 62
     0
100
AcDbTrace
 10
34507.90767468133
 20
-1575.648080526329
 30
0.0
 11
34514.90767468132
 21
-1575.648080526329
 31
0.0
 12
34511.40767468132
 22
-1596.648080526329
 32
0.0
 13
34511.40767468132
 23
-1596.648080526329
 33
0.0
  0
MTEXT
  5
7EFB
330
757E
100
AcDbEntity
  8
0
 62
     0
100
AcDbMText
 10
34487.40767468132
 20
-1369.748080526322
 30
0.0
 40
36.0
 41
0.0
 71
     5
 72
     1
  1
18"
 11
0.0000000000000001
 21
1.0
 31
0.0
 73
     1
 44
1.0
  0
POINT
  5
7EFC
330
757E
100
AcDbEntity
  8
DEFPOINTS
 62
     0
100
AcDbPoint
 10
34721.92849939051
 20
-1142.848080526326
 30
0.0
  0
POINT
  5
7EFD
330
757E
100
AcDbEntity
  8
DEFPOINTS
 62
     0
100
AcDbPoint
 10
34721.92849939051
 20
-1596.648080526329
 30
0.0
  0
POINT
  5
7EFE
330
757E
100
AcDbEntity
  8
DEFPOINTS
 62
     0
100
AcDbPoint
 10
34511.40767468132
 20
-1596.648080526329
 30
0.0
  0
ENDBLK
  5
7589
330
757E
100
AcDbEntity
  8
0
100
AcDbBlockEnd
  0
BLOCK
  5
7594
330
758A
100
AcDbEntity
  8
0
100
AcDbBlockBegin
  2
*D88
 70
     1
 10
0.0
 20
0.0
 30
0.0
  3
*D88
  1

  0
LINE
  5
7EFF
330
758A
100
AcDbEntity
  8
0
 62
     0
370
    -2
100
AcDbLine
 10
34661.92849939051
 20
-1571.248080526328
 30
0.0
 11
34661.92849939051
 21
-1706.140755802873
 31
0.0
  0
LINE
  5
7F00
330
758A
100
AcDbEntity
  8
0
 62
     0
370
    -2
100
AcDbLine
 10
35374.92849939052
 20
-1571.248080526328
 30
0.0
 11
35374.92849939052
 21
-1706.140755802873
 31
0.0
  0
LINE
  5
7F01
330
758A
100
AcDbEntity
  8
0
 62
     0
370
    -2
100
AcDbLine
 10
34682.92849939051
 20
-1688.140755802873
 30
0.0
 11
35353.92849939052
 21
-1688.140755802873
 31
0.0
  0
SOLID
  5
7F02
330
758A
100
AcDbEntity
  8
0
 62
     0
100
AcDbTrace
 10
34682.92849939051
 20
-1684.640755802873
 30
0.0
 11
34682.92849939051
 21
-1691.640755802873
 31
0.0
 12
34661.92849939051
 22
-1688.140755802873
 32
0.0
 13
34661.92849939051
 23
-1688.140755802873
 33
0.0
  0
SOLID
  5
7F03
330
758A
100
AcDbEntity
  8
0
 62
     0
100
AcDbTrace
 10
35353.92849939052
 20
-1684.640755802873
 30
0.0
 11
35353.92849939052
 21
-1691.640755802873
 31
0.0
 12
35374.92849939052
 22
-1688.140755802873
 32
0.0
 13
35374.92849939052
 23
-1688.140755802873
 33
0.0
  0
MTEXT
  5
7F04
330
758A
100
AcDbEntity
  8
0
 62
     0
100
AcDbMText
 10
35018.42849939052
 20
-1664.140755802873
 30
0.0
 40
36.0
 41
0.0
 71
     5
 72
     1
  1
28"
 73
     1
 44
1.0
  0
POINT
  5
7F05
330
758A
100
AcDbEntity
  8
DEFPOINTS
 62
     0
100
AcDbPoint
 10
34661.92849939051
 20
-1511.248080526328
 30
0.0
  0
POINT
  5
7F06
330
758A
100
AcDbEntity
  8
DEFPOINTS
 62
     0
100
AcDbPoint
 10
35374.92849939052
 20
-1511.248080526328
 30
0.0
  0
POINT
  5
7F07
330
758A
100
AcDbEntity
  8
DEFPOINTS
 62
     0
100
AcDbPoint
 10
35374.92849939052
 20
-1688.140755802873
 30
0.0
  0
ENDBLK
  5
7595
330
758A
100
AcDbEntity
  8
0
100
AcDbBlockEnd
  0
BLOCK
  5
75A0
330
7596
100
AcDbEntity
  8
0
100
AcDbBlockBegin
  2
*D89
 70
     1
 10
0.0
 20
0.0
 30
0.0
  3
*D89
  1

  0
LINE
  5
7F08
330
7596
100
AcDbEntity
  8
0
 62
     0
370
    -2
100
AcDbLine
 10
34636.52849939051
 20
-1571.248080526328
 30
0.0
 11
34636.52849939051
 21
-1779.334612005219
 31
0.0
  0
LINE
  5
7F09
330
7596
100
AcDbEntity
  8
0
 62
     0
370
    -2
100
AcDbLine
 10
35400.32849939051
 20
-1512.635762836457
 30
0.0
 11
35400.32849939051
 21
-1779.334612005219
 31
0.0
  0
LINE
  5
7F0A
330
7596
100
AcDbEntity
  8
0
 62
     0
370
    -2
100
AcDbLine
 10
34657.52849939051
 20
-1761.334612005219
 30
0.0
 11
35379.32849939051
 21
-1761.334612005219
 31
0.0
  0
SOLID
  5
7F0B
330
7596
100
AcDbEntity
  8
0
 62
     0
100
AcDbTrace
 10
34657.52849939051
 20
-1757.834612005219
 30
0.0
 11
34657.52849939051
 21
-1764.834612005219
 31
0.0
 12
34636.52849939051
 22
-1761.334612005219
 32
0.0
 13
34636.52849939051
 23
-1761.334612005219
 33
0.0
  0
SOLID
  5
7F0C
330
7596
100
AcDbEntity
  8
0
 62
     0
100
AcDbTrace
 10
35379.32849939051
 20
-1757.834612005219
 30
0.0
 11
35379.32849939051
 21
-1764.834612005219
 31
0.0
 12
35400.32849939051
 22
-1761.334612005219
 32
0.0
 13
35400.32849939051
 23
-1761.334612005219
 33
0.0
  0
MTEXT
  5
7F0D
330
7596
100
AcDbEntity
  8
0
 62
     0
100
AcDbMText
 10
35018.42849939052
 20
-1737.334612005219
 30
0.0
 40
36.0
 41
0.0
 71
     5
 72
     1
  1
30"
 73
     1
 44
1.0
  0
POINT
  5
7F0E
330
7596
100
AcDbEntity
  8
DEFPOINTS
 62
     0
100
AcDbPoint
 10
34636.52849939051
 20
-1511.248080526328
 30
0.0
  0
POINT
  5
7F0F
330
7596
100
AcDbEntity
  8
DEFPOINTS
 62
     0
100
AcDbPoint
 10
35400.32849939051
 20
-1452.635762836457
 30
0.0
  0
POINT
  5
7F10
330
7596
100
AcDbEntity
  8
DEFPOINTS
 62
     0
100
AcDbPoint
 10
35400.32849939051
 20
-1761.334612005219
 30
0.0
  0
ENDBLK
  5
75A1
330
7596
100
AcDbEntity
  8
0
100
AcDbBlockEnd
  0
BLOCK
  5
75AC
330
75A2
100
AcDbEntity
  8
0
100
AcDbBlockBegin
  2
*D90
 70
     1
 10
0.0
 20
0.0
 30
0.0
  3
*D90
  1

  0
LINE
  5
81B2
330
75A2
100
AcDbEntity
  8
0
 62
     0
370
    -2
100
AcDbLine
 10
34576.52849939051
 20
-1967.64403436696
 30
0.0
 11
34498.18291844159
 21
-1967.64403436696
 31
0.0
  0
LINE
  5
81B3
330
75A2
100
AcDbEntity
  8
0
 62
     0
370
    -2
100
AcDbLine
 10
34576.52849939051
 20
-2197.64403436696
 30
0.0
 11
34498.18291844159
 21
-2197.64403436696
 31
0.0
  0
LINE
  5
81B4
330
75A2
100
AcDbEntity
  8
0
 62
     0
370
    -2
100
AcDbLine
 10
34516.18291844159
 20
-1988.64403436696
 30
0.0
 11
34516.18291844159
 21
-2176.64403436696
 31
0.0
  0
SOLID
  5
81B5
330
75A2
100
AcDbEntity
  8
0
 62
     0
100
AcDbTrace
 10
34512.68291844159
 20
-1988.64403436696
 30
0.0
 11
34519.68291844159
 21
-1988.64403436696
 31
0.0
 12
34516.18291844159
 22
-1967.64403436696
 32
0.0
 13
34516.18291844159
 23
-1967.64403436696
 33
0.0
  0
SOLID
  5
81B6
330
75A2
100
AcDbEntity
  8
0
 62
     0
100
AcDbTrace
 10
34512.68291844159
 20
-2176.64403436696
 30
0.0
 11
34519.68291844159
 21
-2176.64403436696
 31
0.0
 12
34516.18291844159
 22
-2197.64403436696
 32
0.0
 13
34516.18291844159
 23
-2197.64403436696
 33
0.0
  0
MTEXT
  5
81B7
330
75A2
100
AcDbEntity
  8
0
 62
     0
100
AcDbMText
 10
34492.18291844159
 20
-2082.644034366954
 30
0.0
 40
36.0
 41
0.0
 71
     5
 72
     1
  1
9"
 11
0.0000000000000001
 21
1.0
 31
0.0
 73
     1
 44
1.0
  0
POINT
  5
81B8
330
75A2
100
AcDbEntity
  8
DEFPOINTS
 62
     0
100
AcDbPoint
 10
34636.52849939051
 20
-1967.64403436696
 30
0.0
  0
POINT
  5
81B9
330
75A2
100
AcDbEntity
  8
DEFPOINTS
 62
     0
100
AcDbPoint
 10
34636.52849939052
 20
-2197.64403436696
 30
0.0
  0
POINT
  5
81BA
330
75A2
100
AcDbEntity
  8
DEFPOINTS
 62
     0
100
AcDbPoint
 10
34516.18291844159
 20
-2197.64403436696
 30
0.0
  0
ENDBLK
  5
75AD
330
75A2
100
AcDbEntity
  8
0
100
AcDbBlockEnd
  0
BLOCK
  5
79EE
330
79E4
100
AcDbEntity
  8
0
100
AcDbBlockBegin
  2
*D134
 70
     1
 10
0.0
 20
0.0
 30
0.0
  3
*D134
  1

  0
LINE
  5
7A14
330
79E4
100
AcDbEntity
  8
0
 62
     0
370
    -2
100
AcDbLine
 10
32163.14386624682
 20
-2745.940215555078
 30
0.0
 11
32015.27979145847
 21
-2745.940215555078
 31
0.0
  0
LINE
  5
7A15
330
79E4
100
AcDbEntity
  8
0
 62
     0
370
    -2
100
AcDbLine
 10
32163.14386624682
 20
-3150.940215555078
 30
0.0
 11
32015.27979145847
 21
-3150.940215555078
 31
0.0
  0
LINE
  5
7A16
330
79E4
100
AcDbEntity
  8
0
 62
     0
370
    -2
100
AcDbLine
 10
32033.27979145847
 20
-2766.940215555078
 30
0.0
 11
32033.27979145847
 21
-3129.940215555078
 31
0.0
  0
SOLID
  5
7A17
330
79E4
100
AcDbEntity
  8
0
 62
     0
100
AcDbTrace
 10
32029.77979145847
 20
-2766.940215555078
 30
0.0
 11
32036.77979145847
 21
-2766.940215555078
 31
0.0
 12
32033.27979145847
 22
-2745.940215555078
 32
0.0
 13
32033.27979145847
 23
-2745.940215555078
 33
0.0
  0
SOLID
  5
7A18
330
79E4
100
AcDbEntity
  8
0
 62
     0
100
AcDbTrace
 10
32029.77979145847
 20
-3129.940215555078
 30
0.0
 11
32036.77979145847
 21
-3129.940215555078
 31
0.0
 12
32033.27979145847
 22
-3150.940215555078
 32
0.0
 13
32033.27979145847
 23
-3150.940215555078
 33
0.0
  0
MTEXT
  5
7A19
330
79E4
100
AcDbEntity
  8
0
 62
     0
100
AcDbMText
 10
32009.27979145847
 20
-2948.44021555507
 30
0.0
 40
36.0
 41
0.0
 71
     5
 72
     1
  1
16"
 11
0.0000000000000001
 21
1.0
 31
0.0
 73
     1
 44
1.0
  0
POINT
  5
7A1A
330
79E4
100
AcDbEntity
  8
DEFPOINTS
 62
     0
100
AcDbPoint
 10
32223.14386624681
 20
-2745.940215555078
 30
0.0
  0
POINT
  5
7A1B
330
79E4
100
AcDbEntity
  8
DEFPOINTS
 62
     0
100
AcDbPoint
 10
32223.14386624681
 20
-3150.940215555078
 30
0.0
  0
POINT
  5
7A1C
330
79E4
100
AcDbEntity
  8
DEFPOINTS
 62
     0
100
AcDbPoint
 10
32033.27979145847
 20
-3150.940215555078
 30
0.0
  0
ENDBLK
  5
79EF
330
79E4
100
AcDbEntity
  8
0
100
AcDbBlockEnd
  0
BLOCK
  5
79FA
330
79F0
100
AcDbEntity
  8
0
100
AcDbBlockBegin
  2
*D135
 70
     1
 10
0.0
 20
0.0
 30
0.0
  3
*D135
  1

  0
LINE
  5
79F1
330
79F0
100
AcDbEntity
  8
0
 62
     0
370
    -2
100
AcDbLine
 10
32107.74386624681
 20
-2775.940215555078
 30
0.0
 11
32107.74386624681
 21
-2588.937493424628
 31
0.0
  0
LINE
  5
79F2
330
79F0
100
AcDbEntity
  8
0
 62
     0
370
    -2
100
AcDbLine
 10
32898.54386624682
 20
-2775.940215555078
 30
0.0
 11
32898.54386624682
 21
-2588.937493424628
 31
0.0
  0
LINE
  5
79F3
330
79F0
100
AcDbEntity
  8
0
 62
     0
370
    -2
100
AcDbLine
 10
32128.74386624681
 20
-2606.937493424628
 30
0.0
 11
32877.54386624683
 21
-2606.937493424628
 31
0.0
  0
SOLID
  5
79F4
330
79F0
100
AcDbEntity
  8
0
 62
     0
100
AcDbTrace
 10
32128.74386624681
 20
-2603.437493424628
 30
0.0
 11
32128.74386624681
 21
-2610.437493424628
 31
0.0
 12
32107.74386624681
 22
-2606.937493424628
 32
0.0
 13
32107.74386624681
 23
-2606.937493424628
 33
0.0
  0
SOLID
  5
79F5
330
79F0
100
AcDbEntity
  8
0
 62
     0
100
AcDbTrace
 10
32877.54386624683
 20
-2603.437493424628
 30
0.0
 11
32877.54386624683
 21
-2610.437493424628
 31
0.0
 12
32898.54386624682
 22
-2606.937493424628
 32
0.0
 13
32898.54386624682
 23
-2606.937493424628
 33
0.0
  0
MTEXT
  5
79F6
330
79F0
100
AcDbEntity
  8
0
 62
     0
100
AcDbMText
 10
32503.14386624681
 20
-2582.937493424628
 30
0.0
 40
36.0
 41
0.0
 71
     5
 72
     1
  1
31 1/4"
 73
     1
 44
1.0
  0
POINT
  5
79F7
330
79F0
100
AcDbEntity
  8
DEFPOINTS
 62
     0
100
AcDbPoint
 10
32107.74386624681
 20
-2835.940215555078
 30
0.0
  0
POINT
  5
79F8
330
79F0
100
AcDbEntity
  8
DEFPOINTS
 62
     0
100
AcDbPoint
 10
32898.54386624682
 20
-2835.940215555078
 30
0.0
  0
POINT
  5
79F9
330
79F0
100
AcDbEntity
  8
DEFPOINTS
 62
     0
100
AcDbPoint
 10
32898.54386624682
 20
-2606.937493424628
 30
0.0
  0
ENDBLK
  5
79FB
330
79F0
100
AcDbEntity
  8
0
100
AcDbBlockEnd
  0
BLOCK
  5
7A06
330
79FC
100
AcDbEntity
  8
0
100
AcDbBlockBegin
  2
*D136
 70
     1
 10
0.0
 20
0.0
 30
0.0
  3
*D136
  1

  0
LINE
  5
79FD
330
79FC
100
AcDbEntity
  8
0
 62
     0
370
    -2
100
AcDbLine
 10
32047.74386624682
 20
-3376.215557656759
 30
0.0
 11
31969.3982852979
 21
-3376.215557656759
 31
0.0
  0
LINE
  5
79FE
330
79FC
100
AcDbEntity
  8
0
 62
     0
370
    -2
100
AcDbLine
 10
32047.74386624683
 20
-3606.215557656759
 30
0.0
 11
31969.3982852979
 21
-3606.215557656759
 31
0.0
  0
LINE
  5
79FF
330
79FC
100
AcDbEntity
  8
0
 62
     0
370
    -2
100
AcDbLine
 10
31987.3982852979
 20
-3397.215557656759
 30
0.0
 11
31987.3982852979
 21
-3585.215557656758
 31
0.0
  0
SOLID
  5
7A00
330
79FC
100
AcDbEntity
  8
0
 62
     0
100
AcDbTrace
 10
31983.8982852979
 20
-3397.215557656759
 30
0.0
 11
31990.8982852979
 21
-3397.215557656759
 31
0.0
 12
31987.3982852979
 22
-3376.215557656759
 32
0.0
 13
31987.3982852979
 23
-3376.215557656759
 33
0.0
  0
SOLID
  5
7A01
330
79FC
100
AcDbEntity
  8
0
 62
     0
100
AcDbTrace
 10
31983.8982852979
 20
-3585.215557656758
 30
0.0
 11
31990.8982852979
 21
-3585.215557656758
 31
0.0
 12
31987.3982852979
 22
-3606.215557656759
 32
0.0
 13
31987.3982852979
 23
-3606.215557656759
 33
0.0
  0
MTEXT
  5
7A02
330
79FC
100
AcDbEntity
  8
0
 62
     0
100
AcDbMText
 10
31963.39828529791
 20
-3491.215557656753
 30
0.0
 40
36.0
 41
0.0
 71
     5
 72
     1
  1
9"
 11
0.0000000000000001
 21
1.0
 31
0.0
 73
     1
 44
1.0
  0
POINT
  5
7A03
330
79FC
100
AcDbEntity
  8
DEFPOINTS
 62
     0
100
AcDbPoint
 10
32107.74386624682
 20
-3376.215557656759
 30
0.0
  0
POINT
  5
7A04
330
79FC
100
AcDbEntity
  8
DEFPOINTS
 62
     0
100
AcDbPoint
 10
32107.74386624683
 20
-3606.215557656759
 30
0.0
  0
POINT
  5
7A05
330
79FC
100
AcDbEntity
  8
DEFPOINTS
 62
     0
100
AcDbPoint
 10
31987.3982852979
 20
-3606.215557656759
 30
0.0
  0
ENDBLK
  5
7A07
330
79FC
100
AcDbEntity
  8
0
100
AcDbBlockEnd
  0
BLOCK
  5
7A12
330
7A08
100
AcDbEntity
  8
0
100
AcDbBlockBegin
  2
*D137
 70
     1
 10
0.0
 20
0.0
 30
0.0
  3
*D137
  1

  0
LINE
  5
7A09
330
7A08
100
AcDbEntity
  8
0
 62
     0
370
    -2
100
AcDbLine
 10
32163.14386624683
 20
-2720.540215555074
 30
0.0
 11
31934.41702262205
 21
-2720.540215555074
 31
0.0
  0
LINE
  5
7A0A
330
7A08
100
AcDbEntity
  8
0
 62
     0
370
    -2
100
AcDbLine
 10
32163.14386624682
 20
-3176.340215555077
 30
0.0
 11
31934.41702262205
 21
-3176.340215555077
 31
0.0
  0
LINE
  5
7A0B
330
7A08
100
AcDbEntity
  8
0
 62
     0
370
    -2
100
AcDbLine
 10
31952.41702262205
 20
-2741.540215555074
 30
0.0
 11
31952.41702262205
 21
-3155.340215555077
 31
0.0
  0
SOLID
  5
7A0C
330
7A08
100
AcDbEntity
  8
0
 62
     0
100
AcDbTrace
 10
31948.91702262204
 20
-2741.540215555074
 30
0.0
 11
31955.91702262205
 21
-2741.540215555074
 31
0.0
 12
31952.41702262205
 22
-2720.540215555074
 32
0.0
 13
31952.41702262205
 23
-2720.540215555074
 33
0.0
  0
SOLID
  5
7A0D
330
7A08
100
AcDbEntity
  8
0
 62
     0
100
AcDbTrace
 10
31948.91702262204
 20
-3155.340215555077
 30
0.0
 11
31955.91702262205
 21
-3155.340215555077
 31
0.0
 12
31952.41702262205
 22
-3176.340215555077
 32
0.0
 13
31952.41702262205
 23
-3176.340215555077
 33
0.0
  0
MTEXT
  5
7A0E
330
7A08
100
AcDbEntity
  8
0
 62
     0
100
AcDbMText
 10
31928.41702262204
 20
-2948.44021555507
 30
0.0
 40
36.0
 41
0.0
 71
     5
 72
     1
  1
18"
 11
0.0000000000000001
 21
1.0
 31
0.0
 73
     1
 44
1.0
  0
POINT
  5
7A0F
330
7A08
100
AcDbEntity
  8
DEFPOINTS
 62
     0
100
AcDbPoint
 10
32223.14386624683
 20
-2720.540215555074
 30
0.0
  0
POINT
  5
7A10
330
7A08
100
AcDbEntity
  8
DEFPOINTS
 62
     0
100
AcDbPoint
 10
32223.14386624681
 20
-3176.340215555077
 30
0.0
  0
POINT
  5
7A11
330
7A08
100
AcDbEntity
  8
DEFPOINTS
 62
     0
100
AcDbPoint
 10
31952.41702262205
 20
-3176.340215555077
 30
0.0
  0
ENDBLK
  5
7A13
330
7A08
100
AcDbEntity
  8
0
100
AcDbBlockEnd
  0
BLOCK
  5
7A27
330
7A1D
100
AcDbEntity
  8
0
100
AcDbBlockBegin
  2
*D138
 70
     1
 10
0.0
 20
0.0
 30
0.0
  3
*D138
  1

  0
LINE
  5
7A1E
330
7A1D
100
AcDbEntity
  8
0
 62
     0
370
    -2
100
AcDbLine
 10
32133.14386624683
 20
-2775.940215555078
 30
0.0
 11
32133.14386624683
 21
-2662.794588220129
 31
0.0
  0
LINE
  5
7A1F
330
7A1D
100
AcDbEntity
  8
0
 62
     0
370
    -2
100
AcDbLine
 10
32873.14386624681
 20
-2775.940215555082
 30
0.0
 11
32873.14386624681
 21
-2662.794588220129
 31
0.0
  0
LINE
  5
7A20
330
7A1D
100
AcDbEntity
  8
0
 62
     0
370
    -2
100
AcDbLine
 10
32154.14386624683
 20
-2680.79458822013
 30
0.0
 11
32852.14386624681
 21
-2680.79458822013
 31
0.0
  0
SOLID
  5
7A21
330
7A1D
100
AcDbEntity
  8
0
 62
     0
100
AcDbTrace
 10
32154.14386624683
 20
-2677.29458822013
 30
0.0
 11
32154.14386624683
 21
-2684.294588220129
 31
0.0
 12
32133.14386624683
 22
-2680.79458822013
 32
0.0
 13
32133.14386624683
 23
-2680.79458822013
 33
0.0
  0
SOLID
  5
7A22
330
7A1D
100
AcDbEntity
  8
0
 62
     0
100
AcDbTrace
 10
32852.14386624681
 20
-2677.29458822013
 30
0.0
 11
32852.14386624681
 21
-2684.294588220129
 31
0.0
 12
32873.14386624681
 22
-2680.79458822013
 32
0.0
 13
32873.14386624681
 23
-2680.79458822013
 33
0.0
  0
MTEXT
  5
7A23
330
7A1D
100
AcDbEntity
  8
0
 62
     0
100
AcDbMText
 10
32503.14386624682
 20
-2656.79458822013
 30
0.0
 40
36.0
 41
0.0
 71
     5
 72
     1
  1
29 1/4"
 73
     1
 44
1.0
  0
POINT
  5
7A24
330
7A1D
100
AcDbEntity
  8
DEFPOINTS
 62
     0
100
AcDbPoint
 10
32133.14386624683
 20
-2835.940215555078
 30
0.0
  0
POINT
  5
7A25
330
7A1D
100
AcDbEntity
  8
DEFPOINTS
 62
     0
100
AcDbPoint
 10
32873.14386624681
 20
-2835.940215555083
 30
0.0
  0
POINT
  5
7A26
330
7A1D
100
AcDbEntity
  8
DEFPOINTS
 62
     0
100
AcDbPoint
 10
32873.14386624681
 20
-2680.79458822013
 30
0.0
  0
ENDBLK
  5
7A28
330
7A1D
100
AcDbEntity
  8
0
100
AcDbBlockEnd
  0
BLOCK
  5
7A35
330
7A2A
100
AcDbEntity
  8
0
100
AcDbBlockBegin
  2
*D139
 70
     1
 10
0.0
 20
0.0
 30
0.0
  3
*D139
  1

  0
LINE
  5
7B8E
330
7A2A
100
AcDbEntity
  8
0
 62
     0
370
    -2
100
AcDbLine
 10
33411.13447712242
 20
-2756.749287093633
 30
0.0
 11
33411.13447712242
 21
-2615.443481451439
 31
0.0
  0
LINE
  5
7B8F
330
7A2A
100
AcDbEntity
  8
0
 62
     0
370
    -2
100
AcDbLine
 10
34214.93184981861
 20
-2761.735044121153
 30
0.0
 11
34214.93184981861
 21
-2615.443481451439
 31
0.0
  0
LINE
  5
7B90
330
7A2A
100
AcDbEntity
  8
0
 62
     0
370
    -2
100
AcDbLine
 10
33432.13447712242
 20
-2633.443481451439
 30
0.0
 11
34193.93184981861
 21
-2633.443481451439
 31
0.0
  0
SOLID
  5
7B91
330
7A2A
100
AcDbEntity
  8
0
 62
     0
100
AcDbTrace
 10
33432.13447712242
 20
-2629.943481451439
 30
0.0
 11
33432.13447712242
 21
-2636.943481451439
 31
0.0
 12
33411.13447712242
 22
-2633.443481451439
 32
0.0
 13
33411.13447712242
 23
-2633.443481451439
 33
0.0
  0
SOLID
  5
7B92
330
7A2A
100
AcDbEntity
  8
0
 62
     0
100
AcDbTrace
 10
34193.93184981861
 20
-2629.943481451439
 30
0.0
 11
34193.93184981861
 21
-2636.943481451439
 31
0.0
 12
34214.93184981861
 22
-2633.443481451439
 32
0.0
 13
34214.93184981861
 23
-2633.443481451439
 33
0.0
  0
MTEXT
  5
7B93
330
7A2A
100
AcDbEntity
  8
0
 62
     0
100
AcDbMText
 10
33813.03316347052
 20
-2609.443481451439
 30
0.0
 40
36.0
 41
0.0
 71
     5
 72
     1
  1
31 3/4"
 73
     1
 44
1.0
  0
POINT
  5
7B94
330
7A2A
100
AcDbEntity
  8
DEFPOINTS
 62
     0
100
AcDbPoint
 10
33411.13447712242
 20
-2816.749287093633
 30
0.0
  0
POINT
  5
7B95
330
7A2A
100
AcDbEntity
  8
DEFPOINTS
 62
     0
100
AcDbPoint
 10
34214.93184981861
 20
-2821.735044121153
 30
0.0
  0
POINT
  5
7B96
330
7A2A
100
AcDbEntity
  8
DEFPOINTS
 62
     0
100
AcDbPoint
 10
34214.93184981861
 20
-2633.443481451439
 30
0.0
  0
ENDBLK
  5
7A36
330
7A2A
100
AcDbEntity
  8
0
100
AcDbBlockEnd
  0
BLOCK
  5
7A6D
330
7A62
100
AcDbEntity
  8
0
100
AcDbBlockBegin
  2
*D140
 70
     1
 10
0.0
 20
0.0
 30
0.0
  3
*D140
  1

  0
LINE
  5
7BD6
330
7A62
100
AcDbEntity
  8
0
 62
     0
370
    -2
100
AcDbLine
 10
33436.53447712242
 20
-2798.659560824141
 30
0.0
 11
33436.53447712242
 21
-2699.2949400034
 31
0.0
  0
LINE
  5
7BD7
330
7A62
100
AcDbEntity
  8
0
 62
     0
370
    -2
100
AcDbLine
 10
33831.53447712242
 20
-2798.659560824163
 30
0.0
 11
33831.53447712242
 21
-2699.2949400034
 31
0.0
  0
LINE
  5
7BD8
330
7A62
100
AcDbEntity
  8
0
 62
     0
370
    -2
100
AcDbLine
 10
33457.53447712242
 20
-2717.2949400034
 30
0.0
 11
33810.53447712242
 21
-2717.2949400034
 31
0.0
  0
SOLID
  5
7BD9
330
7A62
100
AcDbEntity
  8
0
 62
     0
100
AcDbTrace
 10
33457.53447712242
 20
-2713.7949400034
 30
0.0
 11
33457.53447712242
 21
-2720.7949400034
 31
0.0
 12
33436.53447712242
 22
-2717.2949400034
 32
0.0
 13
33436.53447712242
 23
-2717.2949400034
 33
0.0
  0
SOLID
  5
7BDA
330
7A62
100
AcDbEntity
  8
0
 62
     0
100
AcDbTrace
 10
33810.53447712242
 20
-2713.7949400034
 30
0.0
 11
33810.53447712242
 21
-2720.7949400034
 31
0.0
 12
33831.53447712242
 22
-2717.2949400034
 32
0.0
 13
33831.53447712242
 23
-2717.2949400034
 33
0.0
  0
MTEXT
  5
7BDB
330
7A62
100
AcDbEntity
  8
0
 62
     0
100
AcDbMText
 10
33634.03447712242
 20
-2693.294940003399
 30
0.0
 40
36.0
 41
0.0
 71
     5
 72
     1
  1
15 1/2"
 73
     1
 44
1.0
  0
POINT
  5
7BDC
330
7A62
100
AcDbEntity
  8
DEFPOINTS
 62
     0
100
AcDbPoint
 10
33436.53447712242
 20
-2858.659560824141
 30
0.0
  0
POINT
  5
7BDD
330
7A62
100
AcDbEntity
  8
DEFPOINTS
 62
     0
100
AcDbPoint
 10
33831.53447712242
 20
-2858.659560824163
 30
0.0
  0
POINT
  5
7BDE
330
7A62
100
AcDbEntity
  8
DEFPOINTS
 62
     0
100
AcDbPoint
 10
33831.53447712242
 20
-2717.2949400034
 30
0.0
  0
ENDBLK
  5
7A6E
330
7A62
100
AcDbEntity
  8
0
100
AcDbBlockEnd
  0
BLOCK
  5
7AEE
330
7AE2
100
AcDbEntity
  8
0
100
AcDbBlockBegin
  2
*D141
 70
     1
 10
0.0
 20
0.0
 30
0.0
  3
*D141
  1

  0
LINE
  5
7B45
330
7AE2
100
AcDbEntity
  8
0
 62
     0
370
    -2
100
AcDbLine
 10
33311.22613515108
 20
-3444.40724630908
 30
0.0
 11
33236.86637346377
 21
-3444.40724630908
 31
0.0
  0
LINE
  5
7B46
330
7AE2
100
AcDbEntity
  8
0
 62
     0
370
    -2
100
AcDbLine
 10
33329.88137950213
 20
-3674.40429332051
 30
0.0
 11
33236.86637346377
 21
-3674.40429332051
 31
0.0
  0
LINE
  5
7B47
330
7AE2
100
AcDbEntity
  8
0
 62
     0
370
    -2
100
AcDbLine
 10
33254.86637346377
 20
-3465.40724630908
 30
0.0
 11
33254.86637346377
 21
-3653.404293320509
 31
0.0
  0
SOLID
  5
7B48
330
7AE2
100
AcDbEntity
  8
0
 62
     0
100
AcDbTrace
 10
33251.36637346377
 20
-3465.40724630908
 30
0.0
 11
33258.36637346377
 21
-3465.40724630908
 31
0.0
 12
33254.86637346377
 22
-3444.40724630908
 32
0.0
 13
33254.86637346377
 23
-3444.40724630908
 33
0.0
  0
SOLID
  5
7B49
330
7AE2
100
AcDbEntity
  8
0
 62
     0
100
AcDbTrace
 10
33251.36637346377
 20
-3653.404293320509
 30
0.0
 11
33258.36637346377
 21
-3653.404293320509
 31
0.0
 12
33254.86637346377
 22
-3674.40429332051
 32
0.0
 13
33254.86637346377
 23
-3674.40429332051
 33
0.0
  0
MTEXT
  5
7B4A
330
7AE2
100
AcDbEntity
  8
0
 62
     0
100
AcDbMText
 10
33230.86637346377
 20
-3559.40576981479
 30
0.0
 40
36.0
 41
0.0
 71
     5
 72
     1
  1
9"
 11
0.0000000000000001
 21
1.0
 31
0.0
 73
     1
 44
1.0
  0
POINT
  5
7B4B
330
7AE2
100
AcDbEntity
  8
DEFPOINTS
 62
     0
100
AcDbPoint
 10
33371.22613515108
 20
-3444.40724630908
 30
0.0
  0
POINT
  5
7B4C
330
7AE2
100
AcDbEntity
  8
DEFPOINTS
 62
     0
100
AcDbPoint
 10
33389.88137950213
 20
-3674.40429332051
 30
0.0
  0
POINT
  5
7B4D
330
7AE2
100
AcDbEntity
  8
DEFPOINTS
 62
     0
100
AcDbPoint
 10
33254.86637346377
 20
-3674.40429332051
 30
0.0
  0
ENDBLK
  5
7AEF
330
7AE2
100
AcDbEntity
  8
0
100
AcDbBlockEnd
  0
BLOCK
  5
7B5B
330
7B4F
100
AcDbEntity
  8
0
100
AcDbBlockBegin
  2
*D142
 70
     1
 10
0.0
 20
0.0
 30
0.0
  3
*D142
  1

  0
LINE
  5
7B7C
330
7B4F
100
AcDbEntity
  8
0
 62
     0
370
    -2
100
AcDbLine
 10
34274.93184981861
 20
-3444.40724630908
 30
0.0
 11
34354.35996238811
 21
-3444.40724630908
 31
0.0
  0
LINE
  5
7B7D
330
7B4F
100
AcDbEntity
  8
0
 62
     0
370
    -2
100
AcDbLine
 10
34273.15266777341
 20
-3646.007246309081
 30
0.0
 11
34354.35996238811
 21
-3646.007246309081
 31
0.0
  0
LINE
  5
7B7E
330
7B4F
100
AcDbEntity
  8
0
 62
     0
370
    -2
100
AcDbLine
 10
34336.35996238811
 20
-3465.40724630908
 30
0.0
 11
34336.35996238811
 21
-3625.00724630908
 31
0.0
  0
SOLID
  5
7B7F
330
7B4F
100
AcDbEntity
  8
0
 62
     0
100
AcDbTrace
 10
34332.85996238811
 20
-3465.40724630908
 30
0.0
 11
34339.85996238811
 21
-3465.40724630908
 31
0.0
 12
34336.35996238811
 22
-3444.40724630908
 32
0.0
 13
34336.35996238811
 23
-3444.40724630908
 33
0.0
  0
SOLID
  5
7B80
330
7B4F
100
AcDbEntity
  8
0
 62
     0
100
AcDbTrace
 10
34332.85996238811
 20
-3625.00724630908
 30
0.0
 11
34339.85996238811
 21
-3625.00724630908
 31
0.0
 12
34336.35996238811
 22
-3646.007246309081
 32
0.0
 13
34336.35996238811
 23
-3646.007246309081
 33
0.0
  0
MTEXT
  5
7B81
330
7B4F
100
AcDbEntity
  8
0
 62
     0
100
AcDbMText
 10
34312.35996238811
 20
-3545.207246309074
 30
0.0
 40
36.0
 41
0.0
 71
     5
 72
     1
  1
8"
 11
0.0000000000000001
 21
1.0
 31
0.0
 73
     1
 44
1.0
  0
POINT
  5
7B82
330
7B4F
100
AcDbEntity
  8
DEFPOINTS
 62
     0
100
AcDbPoint
 10
34214.93184981861
 20
-3444.40724630908
 30
0.0
  0
POINT
  5
7B83
330
7B4F
100
AcDbEntity
  8
DEFPOINTS
 62
     0
100
AcDbPoint
 10
34213.15266777341
 20
-3646.007246309081
 30
0.0
  0
POINT
  5
7B84
330
7B4F
100
AcDbEntity
  8
DEFPOINTS
 62
     0
100
AcDbPoint
 10
34336.35996238811
 20
-3646.007246309081
 30
0.0
  0
ENDBLK
  5
7B5C
330
7B4F
100
AcDbEntity
  8
0
100
AcDbBlockEnd
  0
BLOCK
  5
7BEB
330
7BE0
100
AcDbEntity
  8
0
100
AcDbBlockBegin
  2
*D143
 70
     1
 10
0.0
 20
0.0
 30
0.0
  3
*D143
  1

  0
LINE
  5
7C20
330
7BE0
100
AcDbEntity
  8
0
 62
     0
370
    -2
100
AcDbLine
 10
33861.53184981861
 20
-2796.296120571407
 30
0.0
 11
33861.53184981861
 21
-2703.099062981839
 31
0.0
  0
LINE
  5
7C21
330
7BE0
100
AcDbEntity
  8
0
 62
     0
370
    -2
100
AcDbLine
 10
34189.53184981861
 20
-2842.657979037969
 30
0.0
 11
34189.53184981861
 21
-2703.099062981839
 31
0.0
  0
LINE
  5
7C22
330
7BE0
100
AcDbEntity
  8
0
 62
     0
370
    -2
100
AcDbLine
 10
33882.53184981861
 20
-2721.099062981839
 30
0.0
 11
34168.53184981861
 21
-2721.099062981839
 31
0.0
  0
SOLID
  5
7C23
330
7BE0
100
AcDbEntity
  8
0
 62
     0
100
AcDbTrace
 10
33882.53184981861
 20
-2717.599062981839
 30
0.0
 11
33882.53184981861
 21
-2724.599062981839
 31
0.0
 12
33861.53184981861
 22
-2721.099062981839
 32
0.0
 13
33861.53184981861
 23
-2721.099062981839
 33
0.0
  0
SOLID
  5
7C24
330
7BE0
100
AcDbEntity
  8
0
 62
     0
100
AcDbTrace
 10
34168.53184981861
 20
-2717.599062981839
 30
0.0
 11
34168.53184981861
 21
-2724.599062981839
 31
0.0
 12
34189.53184981861
 22
-2721.099062981839
 32
0.0
 13
34189.53184981861
 23
-2721.099062981839
 33
0.0
  0
MTEXT
  5
7C25
330
7BE0
100
AcDbEntity
  8
0
 62
     0
100
AcDbMText
 10
34025.53184981861
 20
-2697.099062981839
 30
0.0
 40
36.0
 41
0.0
 71
     5
 72
     1
  1
13"
 73
     1
 44
1.0
  0
POINT
  5
7C26
330
7BE0
100
AcDbEntity
  8
DEFPOINTS
 62
     0
100
AcDbPoint
 10
33861.53184981861
 20
-2856.296120571407
 30
0.0
  0
POINT
  5
7C27
330
7BE0
100
AcDbEntity
  8
DEFPOINTS
 62
     0
100
AcDbPoint
 10
34189.53184981861
 20
-2902.657979037969
 30
0.0
  0
POINT
  5
7C28
330
7BE0
100
AcDbEntity
  8
DEFPOINTS
 62
     0
100
AcDbPoint
 10
34189.53184981861
 20
-2721.099062981839
 30
0.0
  0
ENDBLK
  5
7BEC
330
7BE0
100
AcDbEntity
  8
0
100
AcDbBlockEnd
  0
BLOCK
  5
7C35
330
7C2A
100
AcDbEntity
  8
0
100
AcDbBlockBegin
  2
*D144
 70
     1
 10
0.0
 20
0.0
 30
0.0
  3
*D144
  1

  0
LINE
  5
7CA2
330
7C2A
100
AcDbEntity
  8
0
 62
     0
370
    -2
100
AcDbLine
 10
33410.90034562141
 20
-2824.001824019679
 30
0.0
 11
33329.28833116684
 21
-2824.001824019679
 31
0.0
  0
LINE
  5
7CA3
330
7C2A
100
AcDbEntity
  8
0
 62
     0
370
    -2
100
AcDbLine
 10
33410.90034562143
 20
-3294.001824019679
 30
0.0
 11
33329.28833116684
 21
-3294.001824019679
 31
0.0
  0
LINE
  5
7CA4
330
7C2A
100
AcDbEntity
  8
0
 62
     0
370
    -2
100
AcDbLine
 10
33347.28833116684
 20
-2845.001824019679
 30
0.0
 11
33347.28833116684
 21
-3273.001824019678
 31
0.0
  0
SOLID
  5
7CA5
330
7C2A
100
AcDbEntity
  8
0
 62
     0
100
AcDbTrace
 10
33343.78833116684
 20
-2845.001824019679
 30
0.0
 11
33350.78833116684
 21
-2845.001824019679
 31
0.0
 12
33347.28833116684
 22
-2824.001824019679
 32
0.0
 13
33347.28833116684
 23
-2824.001824019679
 33
0.0
  0
SOLID
  5
7CA6
330
7C2A
100
AcDbEntity
  8
0
 62
     0
100
AcDbTrace
 10
33343.78833116684
 20
-3273.001824019678
 30
0.0
 11
33350.78833116684
 21
-3273.001824019678
 31
0.0
 12
33347.28833116684
 22
-3294.001824019679
 32
0.0
 13
33347.28833116684
 23
-3294.001824019679
 33
0.0
  0
MTEXT
  5
7CA7
330
7C2A
100
AcDbEntity
  8
0
 62
     0
100
AcDbMText
 10
33323.28833116684
 20
-3059.001824019674
 30
0.0
 40
36.0
 41
0.0
 71
     5
 72
     1
  1
18 1/2"
 11
0.0000000000000001
 21
1.0
 31
0.0
 73
     1
 44
1.0
  0
POINT
  5
7CA8
330
7C2A
100
AcDbEntity
  8
DEFPOINTS
 62
     0
100
AcDbPoint
 10
33470.90034562141
 20
-2824.001824019679
 30
0.0
  0
POINT
  5
7CA9
330
7C2A
100
AcDbEntity
  8
DEFPOINTS
 62
     0
100
AcDbPoint
 10
33470.90034562143
 20
-3294.001824019679
 30
0.0
  0
POINT
  5
7CAA
330
7C2A
100
AcDbEntity
  8
DEFPOINTS
 62
     0
100
AcDbPoint
 10
33347.28833116684
 20
-3294.001824019679
 30
0.0
  0
ENDBLK
  5
7C36
330
7C2A
100
AcDbEntity
  8
0
100
AcDbBlockEnd
  0
BLOCK
  5
7C6D
330
7C62
100
AcDbEntity
  8
0
100
AcDbBlockBegin
  2
*D145
 70
     1
 10
0.0
 20
0.0
 30
0.0
  3
*D145
  1

  0
LINE
  5
7CB4
330
7C62
100
AcDbEntity
  8
0
 62
     0
370
    -2
100
AcDbLine
 10
33376.53447712242
 20
-2798.659560824141
 30
0.0
 11
33235.53692880793
 21
-2798.659560824141
 31
0.0
  0
LINE
  5
7CB5
330
7C62
100
AcDbEntity
  8
0
 62
     0
370
    -2
100
AcDbLine
 10
33395.71830478299
 20
-3315.016872906102
 30
0.0
 11
33235.53692880793
 21
-3315.016872906102
 31
0.0
  0
LINE
  5
7CB6
330
7C62
100
AcDbEntity
  8
0
 62
     0
370
    -2
100
AcDbLine
 10
33253.53692880792
 20
-2819.65956082414
 30
0.0
 11
33253.53692880792
 21
-3294.016872906102
 31
0.0
  0
SOLID
  5
7CB7
330
7C62
100
AcDbEntity
  8
0
 62
     0
100
AcDbTrace
 10
33250.03692880792
 20
-2819.65956082414
 30
0.0
 11
33257.03692880793
 21
-2819.65956082414
 31
0.0
 12
33253.53692880792
 22
-2798.659560824141
 32
0.0
 13
33253.53692880792
 23
-2798.659560824141
 33
0.0
  0
SOLID
  5
7CB8
330
7C62
100
AcDbEntity
  8
0
 62
     0
100
AcDbTrace
 10
33250.03692880792
 20
-3294.016872906102
 30
0.0
 11
33257.03692880793
 21
-3294.016872906102
 31
0.0
 12
33253.53692880792
 22
-3315.016872906102
 32
0.0
 13
33253.53692880792
 23
-3315.016872906102
 33
0.0
  0
MTEXT
  5
7CB9
330
7C62
100
AcDbEntity
  8
0
 62
     0
100
AcDbMText
 10
33229.53692880792
 20
-3056.838216865116
 30
0.0
 40
36.0
 41
0.0
 71
     5
 72
     1
  1
20 1/2 "
 11
0.0000000000000001
 21
1.0
 31
0.0
 73
     1
 44
1.0
  0
POINT
  5
7CBA
330
7C62
100
AcDbEntity
  8
DEFPOINTS
 62
     0
100
AcDbPoint
 10
33436.53447712242
 20
-2798.659560824141
 30
0.0
  0
POINT
  5
7CBB
330
7C62
100
AcDbEntity
  8
DEFPOINTS
 62
     0
100
AcDbPoint
 10
33455.71830478299
 20
-3315.016872906102
 30
0.0
  0
POINT
  5
7CBC
330
7C62
100
AcDbEntity
  8
DEFPOINTS
 62
     0
100
AcDbPoint
 10
33253.53692880792
 20
-3315.016872906102
 30
0.0
  0
ENDBLK
  5
7C6E
330
7C62
100
AcDbEntity
  8
0
100
AcDbBlockEnd
  0
BLOCK
  5
7CC9
330
7CBE
100
AcDbEntity
  8
0
100
AcDbBlockBegin
  2
*D146
 70
     1
 10
0.0
 20
0.0
 30
0.0
  3
*D146
  1

  0
LINE
  5
7D18
330
7CBE
100
AcDbEntity
  8
0
 62
     0
370
    -2
100
AcDbLine
 10
34226.81258242951
 20
-2879.001824019679
 30
0.0
 11
34325.56818840599
 21
-2879.001824019679
 31
0.0
  0
LINE
  5
7D19
330
7CBE
100
AcDbEntity
  8
0
 62
     0
370
    -2
100
AcDbLine
 10
34226.81258242951
 20
-3294.001824019679
 30
0.0
 11
34325.56818840599
 21
-3294.001824019679
 31
0.0
  0
LINE
  5
7D1A
330
7CBE
100
AcDbEntity
  8
0
 62
     0
370
    -2
100
AcDbLine
 10
34307.56818840599
 20
-2900.001824019679
 30
0.0
 11
34307.56818840599
 21
-3273.001824019678
 31
0.0
  0
SOLID
  5
7D1B
330
7CBE
100
AcDbEntity
  8
0
 62
     0
100
AcDbTrace
 10
34304.06818840599
 20
-2900.001824019679
 30
0.0
 11
34311.06818840599
 21
-2900.001824019679
 31
0.0
 12
34307.56818840599
 22
-2879.001824019679
 32
0.0
 13
34307.56818840599
 23
-2879.001824019679
 33
0.0
  0
SOLID
  5
7D1C
330
7CBE
100
AcDbEntity
  8
0
 62
     0
100
AcDbTrace
 10
34304.06818840599
 20
-3273.001824019678
 30
0.0
 11
34311.06818840599
 21
-3273.001824019678
 31
0.0
 12
34307.56818840599
 22
-3294.001824019679
 32
0.0
 13
34307.56818840599
 23
-3294.001824019679
 33
0.0
  0
MTEXT
  5
7D1D
330
7CBE
100
AcDbEntity
  8
0
 62
     0
100
AcDbMText
 10
34283.56818840599
 20
-3086.501824019673
 30
0.0
 40
36.0
 41
0.0
 71
     5
 72
     1
  1
16 1/2"
 11
0.0000000000000001
 21
1.0
 31
0.0
 73
     1
 44
1.0
  0
POINT
  5
7D1E
330
7CBE
100
AcDbEntity
  8
DEFPOINTS
 62
     0
100
AcDbPoint
 10
34166.81258242951
 20
-2879.001824019679
 30
0.0
  0
POINT
  5
7D1F
330
7CBE
100
AcDbEntity
  8
DEFPOINTS
 62
     0
100
AcDbPoint
 10
34166.81258242951
 20
-3294.001824019679
 30
0.0
  0
POINT
  5
7D20
330
7CBE
100
AcDbEntity
  8
DEFPOINTS
 62
     0
100
AcDbPoint
 10
34307.56818840599
 20
-3294.001824019679
 30
0.0
  0
ENDBLK
  5
7CCA
330
7CBE
100
AcDbEntity
  8
0
100
AcDbBlockEnd
  0
BLOCK
  5
7D01
330
7CF6
100
AcDbEntity
  8
0
100
AcDbBlockBegin
  2
*D147
 70
     1
 10
0.0
 20
0.0
 30
0.0
  3
*D147
  1

  0
LINE
  5
7D21
330
7CF6
100
AcDbEntity
  8
0
 62
     0
370
    -2
100
AcDbLine
 10
34166.74713628
 20
-2856.29612057138
 30
0.0
 11
34398.63595680212
 21
-2856.29612057138
 31
0.0
  0
LINE
  5
7D22
330
7CF6
100
AcDbEntity
  8
0
 62
     0
370
    -2
100
AcDbLine
 10
34166.74713628
 20
-3315.016872906102
 30
0.0
 11
34398.63595680212
 21
-3315.016872906102
 31
0.0
  0
LINE
  5
7D23
330
7CF6
100
AcDbEntity
  8
0
 62
     0
370
    -2
100
AcDbLine
 10
34380.63595680211
 20
-2877.29612057138
 30
0.0
 11
34380.63595680211
 21
-3294.016872906102
 31
0.0
  0
SOLID
  5
7D24
330
7CF6
100
AcDbEntity
  8
0
 62
     0
100
AcDbTrace
 10
34377.13595680211
 20
-2877.29612057138
 30
0.0
 11
34384.13595680211
 21
-2877.29612057138
 31
0.0
 12
34380.63595680211
 22
-2856.29612057138
 32
0.0
 13
34380.63595680211
 23
-2856.29612057138
 33
0.0
  0
SOLID
  5
7D25
330
7CF6
100
AcDbEntity
  8
0
 62
     0
100
AcDbTrace
 10
34377.13595680211
 20
-3294.016872906102
 30
0.0
 11
34384.13595680211
 21
-3294.016872906102
 31
0.0
 12
34380.63595680211
 22
-3315.016872906102
 32
0.0
 13
34380.63595680211
 23
-3315.016872906102
 33
0.0
  0
MTEXT
  5
7D26
330
7CF6
100
AcDbEntity
  8
0
 62
     0
100
AcDbMText
 10
34356.63595680212
 20
-3085.656496738736
 30
0.0
 40
36.0
 41
0.0
 71
     5
 72
     1
  1
18"
 11
0.0000000000000001
 21
1.0
 31
0.0
 73
     1
 44
1.0
  0
POINT
  5
7D27
330
7CF6
100
AcDbEntity
  8
DEFPOINTS
 62
     0
100
AcDbPoint
 10
34106.74713628
 20
-2856.29612057138
 30
0.0
  0
POINT
  5
7D28
330
7CF6
100
AcDbEntity
  8
DEFPOINTS
 62
     0
100
AcDbPoint
 10
34106.74713628
 20
-3315.016872906102
 30
0.0
  0
POINT
  5
7D29
330
7CF6
100
AcDbEntity
  8
DEFPOINTS
 62
     0
100
AcDbPoint
 10
34380.63595680211
 20
-3315.016872906102
 30
0.0
  0
ENDBLK
  5
7D02
330
7CF6
100
AcDbEntity
  8
0
100
AcDbBlockEnd
  0
BLOCK
  5
7D46
330
7D3B
100
AcDbEntity
  8
0
100
AcDbBlockBegin
  2
*D148
 70
     1
 10
0.0
 20
0.0
 30
0.0
  3
*D148
  1

  0
LINE
  5
7DC0
330
7D3B
100
AcDbEntity
  8
0
 62
     0
370
    -2
100
AcDbLine
 10
34716.30350677338
 20
-2681.584687775827
 30
0.0
 11
34574.81762648066
 21
-2681.584687775827
 31
0.0
  0
LINE
  5
7DC1
330
7D3B
100
AcDbEntity
  8
0
 62
     0
370
    -2
100
AcDbLine
 10
34681.97791284548
 20
-3202.084687775826
 30
0.0
 11
34574.81762648066
 21
-3202.084687775826
 31
0.0
  0
LINE
  5
7DC2
330
7D3B
100
AcDbEntity
  8
0
 62
     0
370
    -2
100
AcDbLine
 10
34592.81762648065
 20
-2702.584687775827
 30
0.0
 11
34592.81762648065
 21
-3181.084687775826
 31
0.0
  0
SOLID
  5
7DC3
330
7D3B
100
AcDbEntity
  8
0
 62
     0
100
AcDbTrace
 10
34589.31762648065
 20
-2702.584687775827
 30
0.0
 11
34596.31762648065
 21
-2702.584687775827
 31
0.0
 12
34592.81762648065
 22
-2681.584687775827
 32
0.0
 13
34592.81762648065
 23
-2681.584687775827
 33
0.0
  0
SOLID
  5
7DC4
330
7D3B
100
AcDbEntity
  8
0
 62
     0
100
AcDbTrace
 10
34589.31762648065
 20
-3181.084687775826
 30
0.0
 11
34596.31762648065
 21
-3181.084687775826
 31
0.0
 12
34592.81762648065
 22
-3202.084687775826
 32
0.0
 13
34592.81762648065
 23
-3202.084687775826
 33
0.0
  0
MTEXT
  5
7DC5
330
7D3B
100
AcDbEntity
  8
0
 62
     0
100
AcDbMText
 10
34567.82497942183
 20
-2945.491802804562
 30
0.0
 40
36.0
 41
0.0
 71
     5
 72
     1
  1
20 1/2” 
 11
0.0000000000000001
 21
1.0
 31
0.0
 73
     1
 44
1.0
  0
POINT
  5
7DC6
330
7D3B
100
AcDbEntity
  8
DEFPOINTS
 62
     0
100
AcDbPoint
 10
34776.30350677337
 20
-2681.584687775827
 30
0.0
  0
POINT
  5
7DC7
330
7D3B
100
AcDbEntity
  8
DEFPOINTS
 62
     0
100
AcDbPoint
 10
34741.97791284548
 20
-3202.084687775826
 30
0.0
  0
POINT
  5
7DC8
330
7D3B
100
AcDbEntity
  8
DEFPOINTS
 62
     0
100
AcDbPoint
 10
34592.81762648065
 20
-3202.084687775826
 30
0.0
  0
ENDBLK
  5
7D47
330
7D3B
100
AcDbEntity
  8
0
100
AcDbBlockEnd
  0
BLOCK
  5
7D85
330
7D7A
100
AcDbEntity
  8
0
100
AcDbBlockBegin
  2
*D149
 70
     1
 10
0.0
 20
0.0
 30
0.0
  3
*D149
  1

  0
LINE
  5
7DDB
330
7D7A
100
AcDbEntity
  8
0
 62
     0
370
    -2
100
AcDbLine
 10
34765.37841530608
 20
-2707.084687775827
 30
0.0
 11
34640.51168835373
 21
-2707.084687775827
 31
0.0
  0
LINE
  5
7DDC
330
7D7A
100
AcDbEntity
  8
0
 62
     0
370
    -2
100
AcDbLine
 10
34759.58357491806
 20
-3177.084687775826
 30
0.0
 11
34640.51168835373
 21
-3177.084687775826
 31
0.0
  0
LINE
  5
7DDD
330
7D7A
100
AcDbEntity
  8
0
 62
     0
370
    -2
100
AcDbLine
 10
34658.51168835373
 20
-2728.084687775827
 30
0.0
 11
34658.51168835373
 21
-3156.084687775825
 31
0.0
  0
SOLID
  5
7DDE
330
7D7A
100
AcDbEntity
  8
0
 62
     0
100
AcDbTrace
 10
34655.01168835373
 20
-2728.084687775827
 30
0.0
 11
34662.01168835373
 21
-2728.084687775827
 31
0.0
 12
34658.51168835373
 22
-2707.084687775827
 32
0.0
 13
34658.51168835373
 23
-2707.084687775827
 33
0.0
  0
SOLID
  5
7DDF
330
7D7A
100
AcDbEntity
  8
0
 62
     0
100
AcDbTrace
 10
34655.01168835373
 20
-3156.084687775825
 30
0.0
 11
34662.01168835373
 21
-3156.084687775825
 31
0.0
 12
34658.51168835373
 22
-3177.084687775826
 32
0.0
 13
34658.51168835373
 23
-3177.084687775826
 33
0.0
  0
MTEXT
  5
7DE0
330
7D7A
100
AcDbEntity
  8
0
 62
     0
100
AcDbMText
 10
34634.51168835373
 20
-2942.084687775821
 30
0.0
 40
36.0
 41
0.0
 71
     5
 72
     1
  1
18 1/2"
 11
0.0000000000000001
 21
1.0
 31
0.0
 73
     1
 44
1.0
  0
POINT
  5
7DE1
330
7D7A
100
AcDbEntity
  8
DEFPOINTS
 62
     0
100
AcDbPoint
 10
34825.37841530608
 20
-2707.084687775827
 30
0.0
  0
POINT
  5
7DE2
330
7D7A
100
AcDbEntity
  8
DEFPOINTS
 62
     0
100
AcDbPoint
 10
34819.58357491806
 20
-3177.084687775826
 30
0.0
  0
POINT
  5
7DE3
330
7D7A
100
AcDbEntity
  8
DEFPOINTS
 62
     0
100
AcDbPoint
 10
34658.51168835373
 20
-3177.084687775826
 30
0.0
  0
ENDBLK
  5
7D86
330
7D7A
100
AcDbEntity
  8
0
100
AcDbBlockEnd
  0
BLOCK
  5
7DEF
330
7DE5
100
AcDbEntity
  8
0
100
AcDbBlockBegin
  2
*D150
 70
     1
 10
0.0
 20
0.0
 30
0.0
  3
*D150
  1

  0
LINE
  5
7DF1
330
7DE5
100
AcDbEntity
  8
0
 62
     0
370
    -2
100
AcDbLine
 10
34624.36112956479
 20
-3443.109254496377
 30
0.0
 11
34550.00136787747
 21
-3443.109254496377
 31
0.0
  0
LINE
  5
7DF2
330
7DE5
100
AcDbEntity
  8
0
 62
     0
370
    -2
100
AcDbLine
 10
34643.01637391583
 20
-3673.106301507806
 30
0.0
 11
34550.00136787747
 21
-3673.106301507806
 31
0.0
  0
LINE
  5
7DF3
330
7DE5
100
AcDbEntity
  8
0
 62
     0
370
    -2
100
AcDbLine
 10
34568.00136787747
 20
-3464.109254496378
 30
0.0
 11
34568.00136787747
 21
-3652.106301507807
 31
0.0
  0
SOLID
  5
7DF4
330
7DE5
100
AcDbEntity
  8
0
 62
     0
100
AcDbTrace
 10
34564.50136787747
 20
-3464.109254496378
 30
0.0
 11
34571.50136787747
 21
-3464.109254496378
 31
0.0
 12
34568.00136787747
 22
-3443.109254496377
 32
0.0
 13
34568.00136787747
 23
-3443.109254496377
 33
0.0
  0
SOLID
  5
7DF5
330
7DE5
100
AcDbEntity
  8
0
 62
     0
100
AcDbTrace
 10
34564.50136787747
 20
-3652.106301507807
 30
0.0
 11
34571.50136787747
 21
-3652.106301507807
 31
0.0
 12
34568.00136787747
 22
-3673.106301507806
 32
0.0
 13
34568.00136787747
 23
-3673.106301507806
 33
0.0
  0
MTEXT
  5
7DF6
330
7DE5
100
AcDbEntity
  8
0
 62
     0
100
AcDbMText
 10
34544.00136787747
 20
-3558.107778002086
 30
0.0
 40
36.0
 41
0.0
 71
     5
 72
     1
  1
9"
 11
0.0000000000000001
 21
1.0
 31
0.0
 73
     1
 44
1.0
  0
POINT
  5
7DF7
330
7DE5
100
AcDbEntity
  8
DEFPOINTS
 62
     0
100
AcDbPoint
 10
34684.36112956479
 20
-3443.109254496377
 30
0.0
  0
POINT
  5
7DF8
330
7DE5
100
AcDbEntity
  8
DEFPOINTS
 62
     0
100
AcDbPoint
 10
34703.01637391583
 20
-3673.106301507806
 30
0.0
  0
POINT
  5
7DF9
330
7DE5
100
AcDbEntity
  8
DEFPOINTS
 62
     0
100
AcDbPoint
 10
34568.00136787747
 20
-3673.106301507806
 30
0.0
  0
ENDBLK
  5
7DF0
330
7DE5
100
AcDbEntity
  8
0
100
AcDbBlockEnd
  0
BLOCK
  5
7E07
330
7DFD
100
AcDbEntity
  8
0
100
AcDbBlockBegin
  2
*D151
 70
     1
 10
0.0
 20
0.0
 30
0.0
  3
*D151
  1

  0
LINE
  5
7E24
330
7DFD
100
AcDbEntity
  8
0
 62
     0
370
    -2
100
AcDbLine
 10
35579.76947153614
 20
-3444.40724630908
 30
0.0
 11
35659.19758410564
 21
-3444.40724630908
 31
0.0
  0
LINE
  5
7E25
330
7DFD
100
AcDbEntity
  8
0
 62
     0
370
    -2
100
AcDbLine
 10
35577.99028949093
 20
-3622.023691146727
 30
0.0
 11
35659.19758410564
 21
-3622.023691146727
 31
0.0
  0
LINE
  5
7E26
330
7DFD
100
AcDbEntity
  8
0
 62
     0
370
    -2
100
AcDbLine
 10
35641.19758410563
 20
-3465.40724630908
 30
0.0
 11
35641.19758410563
 21
-3601.023691146727
 31
0.0
  0
SOLID
  5
7E27
330
7DFD
100
AcDbEntity
  8
0
 62
     0
100
AcDbTrace
 10
35637.69758410563
 20
-3465.40724630908
 30
0.0
 11
35644.69758410564
 21
-3465.40724630908
 31
0.0
 12
35641.19758410563
 22
-3444.40724630908
 32
0.0
 13
35641.19758410563
 23
-3444.40724630908
 33
0.0
  0
SOLID
  5
7E28
330
7DFD
100
AcDbEntity
  8
0
 62
     0
100
AcDbTrace
 10
35637.69758410563
 20
-3601.023691146727
 30
0.0
 11
35644.69758410564
 21
-3601.023691146727
 31
0.0
 12
35641.19758410563
 22
-3622.023691146727
 32
0.0
 13
35641.19758410563
 23
-3622.023691146727
 33
0.0
  0
MTEXT
  5
7E29
330
7DFD
100
AcDbEntity
  8
0
 62
     0
100
AcDbMText
 10
35617.19758410564
 20
-3533.215468727898
 30
0.0
 40
36.0
 41
0.0
 71
     5
 72
     1
  1
7"
 11
0.0000000000000001
 21
1.0
 31
0.0
 73
     1
 44
1.0
  0
POINT
  5
7E2A
330
7DFD
100
AcDbEntity
  8
DEFPOINTS
 62
     0
100
AcDbPoint
 10
35519.76947153614
 20
-3444.40724630908
 30
0.0
  0
POINT
  5
7E2B
330
7DFD
100
AcDbEntity
  8
DEFPOINTS
 62
     0
100
AcDbPoint
 10
35517.99028949093
 20
-3622.023691146727
 30
0.0
  0
POINT
  5
7E2C
330
7DFD
100
AcDbEntity
  8
DEFPOINTS
 62
     0
100
AcDbPoint
 10
35641.19758410563
 20
-3622.023691146727
 30
0.0
  0
ENDBLK
  5
7E08
330
7DFD
100
AcDbEntity
  8
0
100
AcDbBlockEnd
  0
BLOCK
  5
7E3A
330
7E30
100
AcDbEntity
  8
0
100
AcDbBlockBegin
  2
*D152
 70
     1
 10
0.0
 20
0.0
 30
0.0
  3
*D152
  1

  0
LINE
  5
7E81
330
7E30
100
AcDbEntity
  8
0
 62
     0
370
    -2
100
AcDbLine
 10
34724.26947153613
 20
-2651.892284932574
 30
0.0
 11
34724.26947153613
 21
-2510.58647929038
 31
0.0
  0
LINE
  5
7E82
330
7E30
100
AcDbEntity
  8
0
 62
     0
370
    -2
100
AcDbLine
 10
35520.26947153615
 20
-2677.80097687691
 30
0.0
 11
35520.26947153615
 21
-2510.58647929038
 31
0.0
  0
LINE
  5
7E83
330
7E30
100
AcDbEntity
  8
0
 62
     0
370
    -2
100
AcDbLine
 10
34745.26947153613
 20
-2528.58647929038
 30
0.0
 11
35499.26947153615
 21
-2528.58647929038
 31
0.0
  0
SOLID
  5
7E84
330
7E30
100
AcDbEntity
  8
0
 62
     0
100
AcDbTrace
 10
34745.26947153613
 20
-2525.08647929038
 30
0.0
 11
34745.26947153613
 21
-2532.08647929038
 31
0.0
 12
34724.26947153613
 22
-2528.58647929038
 32
0.0
 13
34724.26947153613
 23
-2528.58647929038
 33
0.0
  0
SOLID
  5
7E85
330
7E30
100
AcDbEntity
  8
0
 62
     0
100
AcDbTrace
 10
35499.26947153615
 20
-2525.08647929038
 30
0.0
 11
35499.26947153615
 21
-2532.08647929038
 31
0.0
 12
35520.26947153615
 22
-2528.58647929038
 32
0.0
 13
35520.26947153615
 23
-2528.58647929038
 33
0.0
  0
MTEXT
  5
7E86
330
7E30
100
AcDbEntity
  8
0
 62
     0
100
AcDbMText
 10
35126.16815788422
 20
-2504.58647929038
 30
0.0
 40
36.0
 41
0.0
 71
     5
 72
     1
  1
31 1/2"
 73
     1
 44
1.0
  0
POINT
  5
7E87
330
7E30
100
AcDbEntity
  8
DEFPOINTS
 62
     0
100
AcDbPoint
 10
34724.26947153613
 20
-2711.892284932574
 30
0.0
  0
POINT
  5
7E88
330
7E30
100
AcDbEntity
  8
DEFPOINTS
 62
     0
100
AcDbPoint
 10
35520.26947153615
 20
-2737.80097687691
 30
0.0
  0
POINT
  5
7E89
330
7E30
100
AcDbEntity
  8
DEFPOINTS
 62
     0
100
AcDbPoint
 10
35520.26947153615
 20
-2528.58647929038
 30
0.0
  0
ENDBLK
  5
7E3B
330
7E30
100
AcDbEntity
  8
0
100
AcDbBlockEnd
  0
BLOCK
  5
7E46
330
7E3C
100
AcDbEntity
  8
0
100
AcDbBlockBegin
  2
*D153
 70
     1
 10
0.0
 20
0.0
 30
0.0
  3
*D153
  1

  0
LINE
  5
7EE4
330
7E3C
100
AcDbEntity
  8
0
 62
     0
370
    -2
100
AcDbLine
 10
34749.66947153613
 20
-2693.802558663082
 30
0.0
 11
34749.66947153613
 21
-2594.437937842341
 31
0.0
  0
LINE
  5
7EE5
330
7E3C
100
AcDbEntity
  8
0
 62
     0
370
    -2
100
AcDbLine
 10
35198.2984284456
 20
-2687.084687775828
 30
0.0
 11
35198.2984284456
 21
-2594.437937842341
 31
0.0
  0
LINE
  5
7EE6
330
7E3C
100
AcDbEntity
  8
0
 62
     0
370
    -2
100
AcDbLine
 10
34770.66947153613
 20
-2612.437937842341
 30
0.0
 11
35177.2984284456
 21
-2612.437937842341
 31
0.0
  0
SOLID
  5
7EE7
330
7E3C
100
AcDbEntity
  8
0
 62
     0
100
AcDbTrace
 10
34770.66947153613
 20
-2608.937937842341
 30
0.0
 11
34770.66947153613
 21
-2615.937937842341
 31
0.0
 12
34749.66947153613
 22
-2612.437937842341
 32
0.0
 13
34749.66947153613
 23
-2612.437937842341
 33
0.0
  0
SOLID
  5
7EE8
330
7E3C
100
AcDbEntity
  8
0
 62
     0
100
AcDbTrace
 10
35177.2984284456
 20
-2608.937937842341
 30
0.0
 11
35177.2984284456
 21
-2615.937937842341
 31
0.0
 12
35198.2984284456
 22
-2612.437937842341
 32
0.0
 13
35198.2984284456
 23
-2612.437937842341
 33
0.0
  0
MTEXT
  5
7EE9
330
7E3C
100
AcDbEntity
  8
0
 62
     0
100
AcDbMText
 10
34947.16947153613
 20
-2588.43793784234
 30
0.0
 40
36.0
 41
0.0
 71
     5
 72
     1
  1
17 1/2"
 73
     1
 44
1.0
  0
POINT
  5
7EEA
330
7E3C
100
AcDbEntity
  8
DEFPOINTS
 62
     0
100
AcDbPoint
 10
34749.66947153613
 20
-2753.802558663082
 30
0.0
  0
POINT
  5
7EEB
330
7E3C
100
AcDbEntity
  8
DEFPOINTS
 62
     0
100
AcDbPoint
 10
35198.2984284456
 20
-2747.084687775828
 30
0.0
  0
POINT
  5
7EEC
330
7E3C
100
AcDbEntity
  8
DEFPOINTS
 62
     0
100
AcDbPoint
 10
35198.2984284456
 20
-2612.437937842341
 30
0.0
  0
ENDBLK
  5
7E47
330
7E3C
100
AcDbEntity
  8
0
100
AcDbBlockEnd
  0
BLOCK
  5
7E52
330
7E48
100
AcDbEntity
  8
0
100
AcDbBlockBegin
  2
*D154
 70
     1
 10
0.0
 20
0.0
 30
0.0
  3
*D154
  1

  0
LINE
  5
7ED2
330
7E48
100
AcDbEntity
  8
0
 62
     0
370
    -2
100
AcDbLine
 10
35229.76919059226
 20
-2687.084687775828
 30
0.0
 11
35229.76919059226
 21
-2598.24206082078
 31
0.0
  0
LINE
  5
7ED3
330
7E48
100
AcDbEntity
  8
0
 62
     0
370
    -2
100
AcDbLine
 10
35494.76947153614
 20
-2696.839345964356
 30
0.0
 11
35494.76947153614
 21
-2598.24206082078
 31
0.0
  0
LINE
  5
7ED4
330
7E48
100
AcDbEntity
  8
0
 62
     0
370
    -2
100
AcDbLine
 10
35250.76919059226
 20
-2616.24206082078
 30
0.0
 11
35473.76947153614
 21
-2616.24206082078
 31
0.0
  0
SOLID
  5
7ED5
330
7E48
100
AcDbEntity
  8
0
 62
     0
100
AcDbTrace
 10
35250.76919059226
 20
-2612.74206082078
 30
0.0
 11
35250.76919059226
 21
-2619.74206082078
 31
0.0
 12
35229.76919059226
 22
-2616.24206082078
 32
0.0
 13
35229.76919059226
 23
-2616.24206082078
 33
0.0
  0
SOLID
  5
7ED6
330
7E48
100
AcDbEntity
  8
0
 62
     0
100
AcDbTrace
 10
35473.76947153614
 20
-2612.74206082078
 30
0.0
 11
35473.76947153614
 21
-2619.74206082078
 31
0.0
 12
35494.76947153614
 22
-2616.24206082078
 32
0.0
 13
35494.76947153614
 23
-2616.24206082078
 33
0.0
  0
MTEXT
  5
7ED7
330
7E48
100
AcDbEntity
  8
0
 62
     0
100
AcDbMText
 10
35338.66684423232
 20
-2592.24206082078
 30
0.0
 40
36.0
 41
0.0
 71
     5
 72
     1
  1
10 1/2"
 73
     1
 44
1.0
  0
POINT
  5
7ED8
330
7E48
100
AcDbEntity
  8
DEFPOINTS
 62
     0
100
AcDbPoint
 10
35229.76919059226
 20
-2747.084687775828
 30
0.0
  0
POINT
  5
7ED9
330
7E48
100
AcDbEntity
  8
DEFPOINTS
 62
     0
100
AcDbPoint
 10
35494.76947153614
 20
-2756.839345964356
 30
0.0
  0
POINT
  5
7EDA
330
7E48
100
AcDbEntity
  8
DEFPOINTS
 62
     0
100
AcDbPoint
 10
35494.76947153614
 20
-2616.24206082078
 30
0.0
  0
ENDBLK
  5
7E53
330
7E48
100
AcDbEntity
  8
0
100
AcDbBlockEnd
  0
BLOCK
  5
7FA1
330
7F96
100
AcDbEntity
  8
0
100
AcDbBlockBegin
  2
*D159
 70
     1
 10
0.0
 20
0.0
 30
0.0
  3
*D159
  1

  0
LINE
  5
821D
330
7F96
100
AcDbEntity
  8
0
 62
     0
370
    -2
100
AcDbLine
 10
31203.37407113082
 20
-1332.878970053095
 30
0.0
 11
31203.37407113082
 21
-1290.241961772972
 31
0.0
  0
LINE
  5
821E
330
7F96
100
AcDbEntity
  8
0
 62
     0
370
    -2
100
AcDbLine
 10
31558.37407113081
 20
-1332.878970053095
 30
0.0
 11
31558.37407113081
 21
-1290.241961772972
 31
0.0
  0
LINE
  5
821F
330
7F96
100
AcDbEntity
  8
0
 62
     0
370
    -2
100
AcDbLine
 10
31224.37407113082
 20
-1308.241961772972
 30
0.0
 11
31537.37407113081
 21
-1308.241961772972
 31
0.0
  0
SOLID
  5
8220
330
7F96
100
AcDbEntity
  8
0
 62
     0
100
AcDbTrace
 10
31224.37407113082
 20
-1304.741961772972
 30
0.0
 11
31224.37407113082
 21
-1311.741961772972
 31
0.0
 12
31203.37407113082
 22
-1308.241961772972
 32
0.0
 13
31203.37407113082
 23
-1308.241961772972
 33
0.0
  0
SOLID
  5
8221
330
7F96
100
AcDbEntity
  8
0
 62
     0
100
AcDbTrace
 10
31537.37407113081
 20
-1304.741961772972
 30
0.0
 11
31537.37407113081
 21
-1311.741961772972
 31
0.0
 12
31558.37407113081
 22
-1308.241961772972
 32
0.0
 13
31558.37407113081
 23
-1308.241961772972
 33
0.0
  0
MTEXT
  5
8222
330
7F96
100
AcDbEntity
  8
0
 62
     0
100
AcDbMText
 10
31380.87407113081
 20
-1284.241961772972
 30
0.0
 40
36.0
 41
0.0
 71
     5
 72
     1
  1
14"
 73
     1
 44
1.0
  0
POINT
  5
8223
330
7F96
100
AcDbEntity
  8
DEFPOINTS
 62
     0
100
AcDbPoint
 10
31203.37407113082
 20
-1392.878970053095
 30
0.0
  0
POINT
  5
8224
330
7F96
100
AcDbEntity
  8
DEFPOINTS
 62
     0
100
AcDbPoint
 10
31558.37407113081
 20
-1392.878970053095
 30
0.0
  0
POINT
  5
8225
330
7F96
100
AcDbEntity
  8
DEFPOINTS
 62
     0
100
AcDbPoint
 10
31558.37407113081
 20
-1308.241961772972
 30
0.0
  0
ENDBLK
  5
7FA2
330
7F96
100
AcDbEntity
  8
0
100
AcDbBlockEnd
  0
BLOCK
  5
7FAE
330
7FA3
100
AcDbEntity
  8
0
100
AcDbBlockBegin
  2
*D160
 70
     1
 10
0.0
 20
0.0
 30
0.0
  3
*D160
  1

  0
LINE
  5
820B
330
7FA3
100
AcDbEntity
  8
0
 62
     0
370
    -2
100
AcDbLine
 10
31177.97407113083
 20
-1359.905018996414
 30
0.0
 11
31177.97407113083
 21
-1219.283969454515
 31
0.0
  0
LINE
  5
820C
330
7FA3
100
AcDbEntity
  8
0
 62
     0
370
    -2
100
AcDbLine
 10
31583.77407113083
 20
-1387.456540411491
 30
0.0
 11
31583.77407113083
 21
-1219.283969454515
 31
0.0
  0
LINE
  5
820D
330
7FA3
100
AcDbEntity
  8
0
 62
     0
370
    -2
100
AcDbLine
 10
31198.97407113083
 20
-1237.283969454514
 30
0.0
 11
31562.77407113083
 21
-1237.283969454514
 31
0.0
  0
SOLID
  5
820E
330
7FA3
100
AcDbEntity
  8
0
 62
     0
100
AcDbTrace
 10
31198.97407113083
 20
-1233.783969454514
 30
0.0
 11
31198.97407113083
 21
-1240.783969454514
 31
0.0
 12
31177.97407113083
 22
-1237.283969454514
 32
0.0
 13
31177.97407113083
 23
-1237.283969454514
 33
0.0
  0
SOLID
  5
820F
330
7FA3
100
AcDbEntity
  8
0
 62
     0
100
AcDbTrace
 10
31562.77407113083
 20
-1233.783969454514
 30
0.0
 11
31562.77407113083
 21
-1240.783969454514
 31
0.0
 12
31583.77407113083
 22
-1237.283969454514
 32
0.0
 13
31583.77407113083
 23
-1237.283969454514
 33
0.0
  0
MTEXT
  5
8210
330
7FA3
100
AcDbEntity
  8
0
 62
     0
100
AcDbMText
 10
31380.87407113083
 20
-1213.283969454514
 30
0.0
 40
36.0
 41
0.0
 71
     5
 72
     1
  1
16"
 73
     1
 44
1.0
  0
POINT
  5
8211
330
7FA3
100
AcDbEntity
  8
DEFPOINTS
 62
     0
100
AcDbPoint
 10
31177.97407113083
 20
-1419.905018996414
 30
0.0
  0
POINT
  5
8212
330
7FA3
100
AcDbEntity
  8
DEFPOINTS
 62
     0
100
AcDbPoint
 10
31583.77407113083
 20
-1447.456540411491
 30
0.0
  0
POINT
  5
8213
330
7FA3
100
AcDbEntity
  8
DEFPOINTS
 62
     0
100
AcDbPoint
 10
31583.77407113083
 20
-1237.283969454514
 30
0.0
  0
ENDBLK
  5
7FAF
330
7FA3
100
AcDbEntity
  8
0
100
AcDbBlockEnd
  0
BLOCK
  5
7FBB
330
7FB0
100
AcDbEntity
  8
0
100
AcDbBlockBegin
  2
*D161
 70
     1
 10
0.0
 20
0.0
 30
0.0
  3
*D161
  1

  0
LINE
  5
7FCA
330
7FB0
100
AcDbEntity
  8
0
 62
     0
370
    -2
100
AcDbLine
 10
31413.37407113081
 20
-1733.328668420087
 30
0.0
 11
31099.64421302041
 21
-1733.328668420086
 31
0.0
  0
LINE
  5
7FCB
330
7FB0
100
AcDbEntity
  8
0
 62
     0
370
    -2
100
AcDbLine
 10
31413.37407113081
 20
-1378.328668420087
 30
0.0
 11
31099.64421302041
 21
-1378.328668420086
 31
0.0
  0
LINE
  5
7FCC
330
7FB0
100
AcDbEntity
  8
0
 62
     0
370
    -2
100
AcDbLine
 10
31117.64421302041
 20
-1712.328668420086
 30
0.0
 11
31117.64421302041
 21
-1399.328668420086
 31
0.0
  0
SOLID
  5
7FCD
330
7FB0
100
AcDbEntity
  8
0
 62
     0
100
AcDbTrace
 10
31114.14421302041
 20
-1712.328668420086
 30
0.0
 11
31121.14421302041
 21
-1712.328668420086
 31
0.0
 12
31117.64421302041
 22
-1733.328668420086
 32
0.0
 13
31117.64421302041
 23
-1733.328668420086
 33
0.0
  0
SOLID
  5
7FCE
330
7FB0
100
AcDbEntity
  8
0
 62
     0
100
AcDbTrace
 10
31114.14421302041
 20
-1399.328668420086
 30
0.0
 11
31121.14421302041
 21
-1399.328668420086
 31
0.0
 12
31117.64421302041
 22
-1378.328668420086
 32
0.0
 13
31117.64421302041
 23
-1378.328668420086
 33
0.0
  0
MTEXT
  5
7FCF
330
7FB0
100
AcDbEntity
  8
0
 62
     0
100
AcDbMText
 10
31093.64421302041
 20
-1555.828668420081
 30
0.0
 40
36.0
 41
0.0
 71
     5
 72
     1
  1
14"
 11
0.0000000000000001
 21
1.0
 31
0.0
 73
     1
 44
1.0
  0
POINT
  5
7FD0
330
7FB0
100
AcDbEntity
  8
DEFPOINTS
 62
     0
100
AcDbPoint
 10
31473.37407113081
 20
-1733.328668420087
 30
0.0
  0
POINT
  5
7FD1
330
7FB0
100
AcDbEntity
  8
DEFPOINTS
 62
     0
100
AcDbPoint
 10
31473.37407113081
 20
-1378.328668420087
 30
0.0
  0
POINT
  5
7FD2
330
7FB0
100
AcDbEntity
  8
DEFPOINTS
 62
     0
100
AcDbPoint
 10
31117.64421302041
 20
-1378.328668420086
 30
0.0
  0
ENDBLK
  5
7FBC
330
7FB0
100
AcDbEntity
  8
0
100
AcDbBlockEnd
  0
BLOCK
  5
7FC8
330
7FBD
100
AcDbEntity
  8
0
100
AcDbBlockBegin
  2
*D162
 70
     1
 10
0.0
 20
0.0
 30
0.0
  3
*D162
  1

  0
LINE
  5
7FD3
330
7FBD
100
AcDbEntity
  8
0
 62
     0
370
    -2
100
AcDbLine
 10
31228.37407113081
 20
-1352.928668420085
 30
0.0
 11
31025.53176731946
 21
-1352.928668420085
 31
0.0
  0
LINE
  5
7FD4
330
7FBD
100
AcDbEntity
  8
0
 62
     0
370
    -2
100
AcDbLine
 10
31228.37407113081
 20
-1758.728668420086
 30
0.0
 11
31025.53176731946
 21
-1758.728668420086
 31
0.0
  0
LINE
  5
7FD5
330
7FBD
100
AcDbEntity
  8
0
 62
     0
370
    -2
100
AcDbLine
 10
31043.53176731946
 20
-1373.928668420085
 30
0.0
 11
31043.53176731946
 21
-1737.728668420086
 31
0.0
  0
SOLID
  5
7FD6
330
7FBD
100
AcDbEntity
  8
0
 62
     0
100
AcDbTrace
 10
31040.03176731946
 20
-1373.928668420085
 30
0.0
 11
31047.03176731946
 21
-1373.928668420085
 31
0.0
 12
31043.53176731946
 22
-1352.928668420085
 32
0.0
 13
31043.53176731946
 23
-1352.928668420085
 33
0.0
  0
SOLID
  5
7FD7
330
7FBD
100
AcDbEntity
  8
0
 62
     0
100
AcDbTrace
 10
31040.03176731946
 20
-1737.728668420086
 30
0.0
 11
31047.03176731946
 21
-1737.728668420086
 31
0.0
 12
31043.53176731946
 22
-1758.728668420086
 32
0.0
 13
31043.53176731946
 23
-1758.728668420086
 33
0.0
  0
MTEXT
  5
7FD8
330
7FBD
100
AcDbEntity
  8
0
 62
     0
100
AcDbMText
 10
31019.53176731946
 20
-1555.828668420081
 30
0.0
 40
36.0
 41
0.0
 71
     5
 72
     1
  1
16"
 11
0.0000000000000001
 21
1.0
 31
0.0
 73
     1
 44
1.0
  0
POINT
  5
7FD9
330
7FBD
100
AcDbEntity
  8
DEFPOINTS
 62
     0
100
AcDbPoint
 10
31288.37407113081
 20
-1352.928668420085
 30
0.0
  0
POINT
  5
7FDA
330
7FBD
100
AcDbEntity
  8
DEFPOINTS
 62
     0
100
AcDbPoint
 10
31288.37407113081
 20
-1758.728668420087
 30
0.0
  0
POINT
  5
7FDB
330
7FBD
100
AcDbEntity
  8
DEFPOINTS
 62
     0
100
AcDbPoint
 10
31043.53176731946
 20
-1758.728668420086
 30
0.0
  0
ENDBLK
  5
7FC9
330
7FBD
100
AcDbEntity
  8
0
100
AcDbBlockEnd
  0
BLOCK
  5
8043
330
803F
100
AcDbEntity
  8
0
100
AcDbBlockBegin
  2
A$C0F3E0099
 70
     0
 10
0.0
 20
0.0
 30
0.0
  3
A$C0F3E0099
  1

  0
MTEXT
  5
8040
330
803F
100
AcDbEntity
  8
LABEL
100
AcDbMText
 10
0.0000033710311982
 20
60.00000197455801
 30
0.0
 40
60.0
 41
1305.806766649766
 71
     1
 72
     5
  1
U301
 73
     1
 44
1.0
  0
ENDBLK
  5
8044
330
803F
100
AcDbEntity
  8
0
100
AcDbBlockEnd
  0
BLOCK
  5
80E7
330
80DD
100
AcDbEntity
  8
0
100
AcDbBlockBegin
  2
*D173
 70
     1
 10
0.0
 20
0.0
 30
0.0
  3
*D173
  1

  0
LINE
  5
817C
330
80DD
100
AcDbEntity
  8
0
 62
     0
370
    -2
100
AcDbLine
 10
30958.08549455689
 20
-2527.894810262838
 30
0.0
 11
30862.18772112743
 21
-2527.894810262838
 31
0.0
  0
LINE
  5
817D
330
80DD
100
AcDbEntity
  8
0
 62
     0
370
    -2
100
AcDbLine
 10
30958.08549455689
 20
-2930.894810262838
 30
0.0
 11
30862.18772112743
 21
-2930.894810262838
 31
0.0
  0
LINE
  5
817E
330
80DD
100
AcDbEntity
  8
0
 62
     0
370
    -2
100
AcDbLine
 10
30880.18772112743
 20
-2548.894810262837
 30
0.0
 11
30880.18772112743
 21
-2909.894810262838
 31
0.0
  0
SOLID
  5
817F
330
80DD
100
AcDbEntity
  8
0
 62
     0
100
AcDbTrace
 10
30876.68772112743
 20
-2548.894810262837
 30
0.0
 11
30883.68772112743
 21
-2548.894810262837
 31
0.0
 12
30880.18772112743
 22
-2527.894810262838
 32
0.0
 13
30880.18772112743
 23
-2527.894810262838
 33
0.0
  0
SOLID
  5
8180
330
80DD
100
AcDbEntity
  8
0
 62
     0
100
AcDbTrace
 10
30876.68772112743
 20
-2909.894810262838
 30
0.0
 11
30883.68772112743
 21
-2909.894810262838
 31
0.0
 12
30880.18772112743
 22
-2930.894810262838
 32
0.0
 13
30880.18772112743
 23
-2930.894810262838
 33
0.0
  0
MTEXT
  5
8181
330
80DD
100
AcDbEntity
  8
0
 62
     0
100
AcDbMText
 10
30856.18772112743
 20
-2729.394810262832
 30
0.0
 40
36.0
 41
0.0
 71
     5
 72
     1
  1
16"
 11
0.0000000000000001
 21
1.0
 31
0.0
 73
     1
 44
1.0
  0
POINT
  5
8182
330
80DD
100
AcDbEntity
  8
DEFPOINTS
 62
     0
100
AcDbPoint
 10
31018.08549455689
 20
-2527.894810262838
 30
0.0
  0
POINT
  5
8183
330
80DD
100
AcDbEntity
  8
DEFPOINTS
 62
     0
100
AcDbPoint
 10
31018.08549455689
 20
-2930.894810262838
 30
0.0
  0
POINT
  5
8184
330
80DD
100
AcDbEntity
  8
DEFPOINTS
 62
     0
100
AcDbPoint
 10
30880.18772112743
 20
-2930.894810262838
 30
0.0
  0
ENDBLK
  5
80E8
330
80DD
100
AcDbEntity
  8
0
100
AcDbBlockEnd
  0
BLOCK
  5
80F3
330
80E9
100
AcDbEntity
  8
0
100
AcDbBlockBegin
  2
*D174
 70
     1
 10
0.0
 20
0.0
 30
0.0
  3
*D174
  1

  0
LINE
  5
8173
330
80E9
100
AcDbEntity
  8
0
 62
     0
370
    -2
100
AcDbLine
 10
30958.08549455689
 20
-2502.494810262835
 30
0.0
 11
30789.56466984771
 21
-2502.494810262835
 31
0.0
  0
LINE
  5
8174
330
80E9
100
AcDbEntity
  8
0
 62
     0
370
    -2
100
AcDbLine
 10
30958.08549455689
 20
-2956.294810262838
 30
0.0
 11
30789.56466984771
 21
-2956.294810262838
 31
0.0
  0
LINE
  5
8175
330
80E9
100
AcDbEntity
  8
0
 62
     0
370
    -2
100
AcDbLine
 10
30807.56466984771
 20
-2523.494810262835
 30
0.0
 11
30807.56466984771
 21
-2935.294810262838
 31
0.0
  0
SOLID
  5
8176
330
80E9
100
AcDbEntity
  8
0
 62
     0
100
AcDbTrace
 10
30804.06466984771
 20
-2523.494810262835
 30
0.0
 11
30811.06466984771
 21
-2523.494810262835
 31
0.0
 12
30807.56466984771
 22
-2502.494810262835
 32
0.0
 13
30807.56466984771
 23
-2502.494810262835
 33
0.0
  0
SOLID
  5
8177
330
80E9
100
AcDbEntity
  8
0
 62
     0
100
AcDbTrace
 10
30804.06466984771
 20
-2935.294810262838
 30
0.0
 11
30811.06466984771
 21
-2935.294810262838
 31
0.0
 12
30807.56466984771
 22
-2956.294810262838
 32
0.0
 13
30807.56466984771
 23
-2956.294810262838
 33
0.0
  0
MTEXT
  5
8178
330
80E9
100
AcDbEntity
  8
0
 62
     0
100
AcDbMText
 10
30783.56466984771
 20
-2729.394810262832
 30
0.0
 40
36.0
 41
0.0
 71
     5
 72
     1
  1
18"
 11
0.0000000000000001
 21
1.0
 31
0.0
 73
     1
 44
1.0
  0
POINT
  5
8179
330
80E9
100
AcDbEntity
  8
DEFPOINTS
 62
     0
100
AcDbPoint
 10
31018.08549455689
 20
-2502.494810262835
 30
0.0
  0
POINT
  5
817A
330
80E9
100
AcDbEntity
  8
DEFPOINTS
 62
     0
100
AcDbPoint
 10
31018.08549455689
 20
-2956.294810262838
 30
0.0
  0
POINT
  5
817B
330
80E9
100
AcDbEntity
  8
DEFPOINTS
 62
     0
100
AcDbPoint
 10
30807.56466984771
 20
-2956.294810262838
 30
0.0
  0
ENDBLK
  5
80F4
330
80E9
100
AcDbEntity
  8
0
100
AcDbBlockEnd
  0
BLOCK
  5
80FF
330
80F5
100
AcDbEntity
  8
0
100
AcDbBlockBegin
  2
*D175
 70
     1
 10
0.0
 20
0.0
 30
0.0
  3
*D175
  1

  0
LINE
  5
818E
330
80F5
100
AcDbEntity
  8
0
 62
     0
370
    -2
100
AcDbLine
 10
30958.08549455689
 20
-2930.894810262838
 30
0.0
 11
30958.08549455689
 21
-3065.787485539382
 31
0.0
  0
LINE
  5
818F
330
80F5
100
AcDbEntity
  8
0
 62
     0
370
    -2
100
AcDbLine
 10
31595.0854945569
 20
-2930.894810262838
 30
0.0
 11
31595.0854945569
 21
-3065.787485539382
 31
0.0
  0
LINE
  5
8190
330
80F5
100
AcDbEntity
  8
0
 62
     0
370
    -2
100
AcDbLine
 10
30979.0854945569
 20
-3047.787485539382
 30
0.0
 11
31574.0854945569
 21
-3047.787485539382
 31
0.0
  0
SOLID
  5
8191
330
80F5
100
AcDbEntity
  8
0
 62
     0
100
AcDbTrace
 10
30979.0854945569
 20
-3044.287485539382
 30
0.0
 11
30979.0854945569
 21
-3051.287485539382
 31
0.0
 12
30958.08549455689
 22
-3047.787485539382
 32
0.0
 13
30958.08549455689
 23
-3047.787485539382
 33
0.0
  0
SOLID
  5
8192
330
80F5
100
AcDbEntity
  8
0
 62
     0
100
AcDbTrace
 10
31574.0854945569
 20
-3044.287485539382
 30
0.0
 11
31574.0854945569
 21
-3051.287485539382
 31
0.0
 12
31595.0854945569
 22
-3047.787485539382
 32
0.0
 13
31595.0854945569
 23
-3047.787485539382
 33
0.0
  0
MTEXT
  5
8193
330
80F5
100
AcDbEntity
  8
0
 62
     0
100
AcDbMText
 10
31276.5854945569
 20
-3023.787485539382
 30
0.0
 40
36.0
 41
0.0
 71
     5
 72
     1
  1
25"
 73
     1
 44
1.0
  0
POINT
  5
8194
330
80F5
100
AcDbEntity
  8
DEFPOINTS
 62
     0
100
AcDbPoint
 10
30958.08549455689
 20
-2870.894810262837
 30
0.0
  0
POINT
  5
8195
330
80F5
100
AcDbEntity
  8
DEFPOINTS
 62
     0
100
AcDbPoint
 10
31595.0854945569
 20
-2870.894810262837
 30
0.0
  0
POINT
  5
8196
330
80F5
100
AcDbEntity
  8
DEFPOINTS
 62
     0
100
AcDbPoint
 10
31595.0854945569
 20
-3047.787485539382
 30
0.0
  0
ENDBLK
  5
8100
330
80F5
100
AcDbEntity
  8
0
100
AcDbBlockEnd
  0
BLOCK
  5
810B
330
8101
100
AcDbEntity
  8
0
100
AcDbBlockBegin
  2
*D176
 70
     1
 10
0.0
 20
0.0
 30
0.0
  3
*D176
  1

  0
LINE
  5
8185
330
8101
100
AcDbEntity
  8
0
 62
     0
370
    -2
100
AcDbLine
 10
30932.68549455689
 20
-2930.894810262838
 30
0.0
 11
30932.68549455689
 21
-3138.981341741728
 31
0.0
  0
LINE
  5
8186
330
8101
100
AcDbEntity
  8
0
 62
     0
370
    -2
100
AcDbLine
 10
31620.4854945569
 20
-2872.282492572966
 30
0.0
 11
31620.4854945569
 21
-3138.981341741728
 31
0.0
  0
LINE
  5
8187
330
8101
100
AcDbEntity
  8
0
 62
     0
370
    -2
100
AcDbLine
 10
30953.68549455689
 20
-3120.981341741729
 30
0.0
 11
31599.4854945569
 21
-3120.981341741729
 31
0.0
  0
SOLID
  5
8188
330
8101
100
AcDbEntity
  8
0
 62
     0
100
AcDbTrace
 10
30953.68549455689
 20
-3117.481341741728
 30
0.0
 11
30953.68549455689
 21
-3124.481341741728
 31
0.0
 12
30932.68549455689
 22
-3120.981341741729
 32
0.0
 13
30932.68549455689
 23
-3120.981341741729
 33
0.0
  0
SOLID
  5
8189
330
8101
100
AcDbEntity
  8
0
 62
     0
100
AcDbTrace
 10
31599.4854945569
 20
-3117.481341741728
 30
0.0
 11
31599.4854945569
 21
-3124.481341741728
 31
0.0
 12
31620.4854945569
 22
-3120.981341741729
 32
0.0
 13
31620.4854945569
 23
-3120.981341741729
 33
0.0
  0
MTEXT
  5
818A
330
8101
100
AcDbEntity
  8
0
 62
     0
100
AcDbMText
 10
31276.5854945569
 20
-3096.981341741728
 30
0.0
 40
36.0
 41
0.0
 71
     5
 72
     1
  1
27"
 73
     1
 44
1.0
  0
POINT
  5
818B
330
8101
100
AcDbEntity
  8
DEFPOINTS
 62
     0
100
AcDbPoint
 10
30932.68549455689
 20
-2870.894810262837
 30
0.0
  0
POINT
  5
818C
330
8101
100
AcDbEntity
  8
DEFPOINTS
 62
     0
100
AcDbPoint
 10
31620.4854945569
 20
-2812.282492572966
 30
0.0
  0
POINT
  5
818D
330
8101
100
AcDbEntity
  8
DEFPOINTS
 62
     0
100
AcDbPoint
 10
31620.4854945569
 20
-3120.981341741729
 30
0.0
  0
ENDBLK
  5
810C
330
8101
100
AcDbEntity
  8
0
100
AcDbBlockEnd
  0
BLOCK
  5
8117
330
810D
100
AcDbEntity
  8
0
100
AcDbBlockBegin
  2
*D177
 70
     1
 10
0.0
 20
0.0
 30
0.0
  3
*D177
  1

  0
LINE
  5
81A0
330
810D
100
AcDbEntity
  8
0
 62
     0
370
    -2
100
AcDbLine
 10
30872.68549455689
 20
-3327.290764103469
 30
0.0
 11
30794.33991360798
 21
-3327.290764103469
 31
0.0
  0
LINE
  5
81A1
330
810D
100
AcDbEntity
  8
0
 62
     0
370
    -2
100
AcDbLine
 10
30872.6854945569
 20
-3557.290764103469
 30
0.0
 11
30794.33991360798
 21
-3557.290764103469
 31
0.0
  0
LINE
  5
81A2
330
810D
100
AcDbEntity
  8
0
 62
     0
370
    -2
100
AcDbLine
 10
30812.33991360798
 20
-3348.290764103469
 30
0.0
 11
30812.33991360798
 21
-3536.290764103469
 31
0.0
  0
SOLID
  5
81A3
330
810D
100
AcDbEntity
  8
0
 62
     0
100
AcDbTrace
 10
30808.83991360797
 20
-3348.290764103469
 30
0.0
 11
30815.83991360798
 21
-3348.290764103469
 31
0.0
 12
30812.33991360798
 22
-3327.290764103469
 32
0.0
 13
30812.33991360798
 23
-3327.290764103469
 33
0.0
  0
SOLID
  5
81A4
330
810D
100
AcDbEntity
  8
0
 62
     0
100
AcDbTrace
 10
30808.83991360797
 20
-3536.290764103469
 30
0.0
 11
30815.83991360798
 21
-3536.290764103469
 31
0.0
 12
30812.33991360798
 22
-3557.290764103469
 32
0.0
 13
30812.33991360798
 23
-3557.290764103469
 33
0.0
  0
MTEXT
  5
81A5
330
810D
100
AcDbEntity
  8
0
 62
     0
100
AcDbMText
 10
30788.33991360798
 20
-3442.290764103463
 30
0.0
 40
36.0
 41
0.0
 71
     5
 72
     1
  1
9"
 11
0.0000000000000001
 21
1.0
 31
0.0
 73
     1
 44
1.0
  0
POINT
  5
81A6
330
810D
100
AcDbEntity
  8
DEFPOINTS
 62
     0
100
AcDbPoint
 10
30932.68549455689
 20
-3327.290764103469
 30
0.0
  0
POINT
  5
81A7
330
810D
100
AcDbEntity
  8
DEFPOINTS
 62
     0
100
AcDbPoint
 10
30932.6854945569
 20
-3557.290764103469
 30
0.0
  0
POINT
  5
81A8
330
810D
100
AcDbEntity
  8
DEFPOINTS
 62
     0
100
AcDbPoint
 10
30812.33991360798
 20
-3557.290764103469
 30
0.0
  0
ENDBLK
  5
8118
330
810D
100
AcDbEntity
  8
0
100
AcDbBlockEnd
  0
BLOCK
  5
8232
330
8226
100
AcDbEntity
  8
0
100
AcDbBlockBegin
  2
A$C440D491C
 70
     0
 10
0.0
 20
0.0
 30
0.0
  3
A$C440D491C
  1

  0
LINE
  5
8227
330
8226
100
AcDbEntity
  8
0
100
AcDbLine
 10
25.00000969166285
 20
229.7144431061952
 30
0.0
 11
41.11189725541044
 21
45.55472555632514
 31
0.0
  0
LINE
  5
8228
330
8226
100
AcDbEntity
  8
0
100
AcDbLine
 10
0.0000096916628536
 20
229.7144431061952
 30
0.0
 11
584.0000096916737
 21
229.7144431061952
 31
0.0
  0
LINE
  5
8229
330
8226
100
AcDbEntity
  8
0
100
AcDbLine
 10
563.0000096916774
 20
229.7144431061952
 30
0.0
 11
546.8881221279225
 21
45.55472555632559
 31
0.0
  0
ARC
  5
822A
330
8226
100
AcDbEntity
  8
0
100
AcDbCircle
 10
292.0000096916701
 20
3582.529896094766
 30
0.0
 40
3582.812500000001
100
AcDbArc
 50
269.2803480864962
 51
270.7196519135038
  0
ARC
  5
822B
330
8226
100
AcDbEntity
  8
0
100
AcDbCircle
 10
294.0000096916847
 20
3632.858454088869
 30
0.0
 40
3630.144010982674
100
AcDbArc
 50
266.5977854788236
 51
273.4022145211765
  0
ARC
  5
822C
330
8226
100
AcDbEntity
  8
0
100
AcDbCircle
 10
80.95968517907749
 20
49.04095526623132
 30
0.0
 40
40.0
100
AcDbArc
 50
185.0000000000028
 51
266.5739446236728
  0
ARC
  5
822D
330
8226
100
AcDbEntity
  8
0
100
AcDbCircle
 10
507.0403342042554
 20
49.04095526623177
 30
0.0
 40
40.0
100
AcDbArc
 50
273.4260553763272
 51
354.9999999999972
  0
LINE
  5
822E
330
8226
100
AcDbEntity
  8
0
100
AcDbLine
 10
234.5000096916701
 20
3.17921682956512
 30
0.0
 11
247.0000096916701
 21
0.0000064558453232
 31
0.0
  0
LINE
  5
822F
330
8226
100
AcDbEntity
  8
0
100
AcDbLine
 10
337.0000096916701
 20
0.0000064558453232
 30
0.0
 11
349.5000096916701
 21
3.17921682956512
 31
0.0
  0
ENDBLK
  5
8233
330
8226
100
AcDbEntity
  8
0
100
AcDbBlockEnd
  0
BLOCK
  5
8253
330
8247
100
AcDbEntity
  8
0
100
AcDbBlockBegin
  2
*D179
 70
     1
 10
0.0
 20
0.0
 30
0.0
  3
*D179
  1

  0
LINE
  5
827D
330
8247
100
AcDbEntity
  8
0
 62
     0
370
    -2
100
AcDbLine
 10
31117.97407113082
 20
-1841.296242384494
 30
0.0
 11
31046.75655325319
 21
-1841.296242384494
 31
0.0
  0
LINE
  5
827E
330
8247
100
AcDbEntity
  8
0
 62
     0
370
    -2
100
AcDbLine
 10
31130.0436083557
 20
-2046.293289395924
 30
0.0
 11
31046.75655325319
 21
-2046.293289395924
 31
0.0
  0
LINE
  5
827F
330
8247
100
AcDbEntity
  8
0
 62
     0
370
    -2
100
AcDbLine
 10
31064.75655325318
 20
-1862.296242384494
 30
0.0
 11
31064.75655325318
 21
-2025.293289395924
 31
0.0
  0
SOLID
  5
8280
330
8247
100
AcDbEntity
  8
0
 62
     0
100
AcDbTrace
 10
31061.25655325318
 20
-1862.296242384494
 30
0.0
 11
31068.25655325319
 21
-1862.296242384494
 31
0.0
 12
31064.75655325318
 22
-1841.296242384494
 32
0.0
 13
31064.75655325318
 23
-1841.296242384494
 33
0.0
  0
SOLID
  5
8281
330
8247
100
AcDbEntity
  8
0
 62
     0
100
AcDbTrace
 10
31061.25655325318
 20
-2025.293289395924
 30
0.0
 11
31068.25655325319
 21
-2025.293289395924
 31
0.0
 12
31064.75655325318
 22
-2046.293289395924
 32
0.0
 13
31064.75655325318
 23
-2046.293289395924
 33
0.0
  0
MTEXT
  5
8282
330
8247
100
AcDbEntity
  8
0
 62
     0
100
AcDbMText
 10
31040.75655325318
 20
-1943.794765890204
 30
0.0
 40
36.0
 41
0.0
 71
     5
 72
     1
  1
8"
 11
0.0000000000000001
 21
1.0
 31
0.0
 73
     1
 44
1.0
  0
POINT
  5
8283
330
8247
100
AcDbEntity
  8
DEFPOINTS
 62
     0
100
AcDbPoint
 10
31177.97407113082
 20
-1841.296242384494
 30
0.0
  0
POINT
  5
8284
330
8247
100
AcDbEntity
  8
DEFPOINTS
 62
     0
100
AcDbPoint
 10
31190.0436083557
 20
-2046.293289395924
 30
0.0
  0
POINT
  5
8285
330
8247
100
AcDbEntity
  8
DEFPOINTS
 62
     0
100
AcDbPoint
 10
31064.75655325318
 20
-2046.293289395924
 30
0.0
  0
ENDBLK
  5
8254
330
8247
100
AcDbEntity
  8
0
100
AcDbBlockEnd
  0
ENDSEC
  0
SECTION
  2
ENTITIES
  0
MTEXT
  5
7F21
330
1F
100
AcDbEntity
  8
LABEL
100
AcDbMText
 10
31261.43574510665
 20
-2265.758253216638
 30
0.0
 40
60.0
 41
1305.806766649766
 71
     1
 72
     5
  1
U103
 73
     1
 44
1.0
  0
ARC
  5
7F77
330
1F
100
AcDbEntity
  8
图层1
  6
ByBlock
100
AcDbCircle
 10
31288.37407113081
 20
-1463.328668420087
 30
0.0
 40
110.4
100
AcDbArc
 50
90.0
 51
180.0
  0
LINE
  5
7F78
330
1F
100
AcDbEntity
  8
图层1
  6
ByBlock
100
AcDbLine
 10
31177.97407113083
 20
-1648.328668420086
 30
0.0
 11
31177.97407113083
 21
-1463.328668420087
 31
0.0
  0
ARC
  5
7F79
102
{ACAD_REACTORS
330
7F95
102
}
330
1F
100
AcDbEntity
  8
图层1
  6
ByBlock
100
AcDbCircle
 10
31288.37407113081
 20
-1648.328668420086
 30
0.0
 40
110.4
100
AcDbArc
 50
180.0
 51
270.0
  0
LINE
  5
7F7A
330
1F
100
AcDbEntity
  8
图层1
  6
ByBlock
100
AcDbLine
 10
31473.37407113081
 20
-1758.728668420088
 30
0.0
 11
31288.37407113081
 21
-1758.728668420088
 31
0.0
  0
ARC
  5
7F7B
330
1F
100
AcDbEntity
  8
图层1
  6
ByBlock
100
AcDbCircle
 10
31473.37407113081
 20
-1648.328668420086
 30
0.0
 40
110.4
100
AcDbArc
 50
270.0
 51
0.0
  0
LINE
  5
7F7C
330
1F
100
AcDbEntity
  8
图层1
  6
ByBlock
100
AcDbLine
 10
31583.77407113083
 20
-1463.328668420087
 30
0.0
 11
31583.77407113083
 21
-1648.328668420086
 31
0.0
  0
ARC
  5
7F7D
330
1F
100
AcDbEntity
  8
图层1
  6
ByBlock
100
AcDbCircle
 10
31473.37407113081
 20
-1463.328668420087
 30
0.0
 40
110.4
100
AcDbArc
 50
0.0
 51
90.0
  0
LINE
  5
7F7E
102
{ACAD_REACTORS
330
7F95
102
}
330
1F
100
AcDbEntity
  8
图层1
  6
ByBlock
100
AcDbLine
 10
31288.37407113081
 20
-1352.928668420085
 30
0.0
 11
31473.37407113081
 21
-1352.928668420085
 31
0.0
  0
CIRCLE
  5
7F7F
330
1F
100
AcDbEntity
  8
0
100
AcDbCircle
 10
31380.87407113081
 20
-1555.828668420087
 30
0.0
 40
45.0
  0
CIRCLE
  5
7F80
330
1F
100
AcDbEntity
  8
0
100
AcDbCircle
 10
31380.87407113081
 20
-1555.828668420087
 30
0.0
 40
60.0
  0
LINE
  5
7F81
330
1F
100
AcDbEntity
  8
图层1
  6
ByBlock
100
AcDbLine
 10
31288.37407113081
 20
-1378.328668420087
 30
0.0
 11
31473.37407113081
 21
-1378.328668420087
 31
0.0
  0
LINE
  5
7F82
330
1F
100
AcDbEntity
  8
图层1
  6
ByBlock
100
AcDbLine
 10
31558.37407113081
 20
-1463.328668420087
 30
0.0
 11
31558.37407113081
 21
-1648.328668420086
 31
0.0
  0
LINE
  5
7F83
102
{ACAD_REACTORS
330
7F92
102
}
330
1F
100
AcDbEntity
  8
图层1
  6
ByBlock
100
AcDbLine
 10
31473.37407113081
 20
-1733.328668420087
 30
0.0
 11
31288.37407113081
 21
-1733.328668420087
 31
0.0
  0
LINE
  5
7F84
330
1F
100
AcDbEntity
  8
图层1
  6
ByBlock
100
AcDbLine
 10
31203.37407113082
 20
-1648.328668420086
 30
0.0
 11
31203.37407113082
 21
-1463.328668420087
 31
0.0
  0
ARC
  5
7F85
330
1F
100
AcDbEntity
  8
图层1
  6
ByBlock
100
AcDbCircle
 10
31288.37407113081
 20
-1463.328668420087
 30
0.0
 40
85.0
100
AcDbArc
 50
90.0
 51
180.0
  0
ARC
  5
7F86
330
1F
100
AcDbEntity
  8
图层1
  6
ByBlock
100
AcDbCircle
 10
31288.37407113081
 20
-1648.328668420086
 30
0.0
 40
85.0
100
AcDbArc
 50
180.0
 51
270.0
  0
ARC
  5
7F87
102
{ACAD_REACTORS
330
7F92
102
}
330
1F
100
AcDbEntity
  8
图层1
  6
ByBlock
100
AcDbCircle
 10
31473.37407113081
 20
-1463.328668420087
 30
0.0
 40
85.0
100
AcDbArc
 50
0.0
 51
90.0
  0
ARC
  5
7F88
330
1F
100
AcDbEntity
  8
图层1
  6
ByBlock
100
AcDbCircle
 10
31473.37407113081
 20
-1648.328668420086
 30
0.0
 40
85.0
100
AcDbArc
 50
270.0
 51
0.0
  0
DIMENSION
  5
7F8A
330
1F
100
AcDbEntity
  8
0
100
AcDbDimension
  2
*D159
 10
31558.37407113081
 20
-1308.241961772972
 30
0.0
 11
31380.87407113081
 21
-1308.241961772972
 31
0.0
 70
   160
  1
14"
 71
     5
 42
355.0
  3
副本 ISO-25
100
AcDbAlignedDimension
 13
31203.37407113082
 23
-1392.878970053095
 33
0.0
 14
31558.37407113081
 24
-1392.878970053095
 34
0.0
100
AcDbRotatedDimension
  0
DIMENSION
  5
7F8D
330
1F
100
AcDbEntity
  8
0
100
AcDbDimension
  2
*D160
 10
31583.77407113083
 20
-1237.283969454514
 30
0.0
 11
31380.87407113083
 21
-1237.283969454514
 31
0.0
 70
   160
  1
16"
 71
     5
 42
405.7999999999992
  3
副本 ISO-25
100
AcDbAlignedDimension
 13
31177.97407113083
 23
-1419.905018996414
 33
0.0
 14
31583.77407113083
 24
-1447.456540411491
 34
0.0
100
AcDbRotatedDimension
  0
DIMENSION
  5
7F90
102
{ACAD_XDICTIONARY
360
7F91
102
}
102
{ACAD_REACTORS
330
7F92
102
}
330
1F
100
AcDbEntity
  8
0
100
AcDbDimension
  2
*D161
 10
31117.64421302041
 20
-1378.328668420086
 30
0.0
 11
31093.64421302041
 21
-1555.828668420081
 31
0.0
 70
    32
  1
14"
 71
     5
 42
355.0
  3
副本 ISO-25
100
AcDbAlignedDimension
 13
31473.37407113081
 23
-1733.328668420087
 33
0.0
 14
31473.37407113081
 24
-1378.328668420087
 34
0.0
 50
90.0
100
AcDbRotatedDimension
  0
DIMENSION
  5
7F93
102
{ACAD_XDICTIONARY
360
7F94
102
}
102
{ACAD_REACTORS
330
7F95
102
}
330
1F
100
AcDbEntity
  8
0
100
AcDbDimension
  2
*D162
 10
31043.53176731946
 20
-1758.728668420086
 30
0.0
 11
31019.53176731946
 21
-1555.828668420081
 31
0.0
 70
    32
  1
16"
 71
     5
 42
405.8000000000015
  3
副本 ISO-25
100
AcDbAlignedDimension
 13
31288.37407113081
 23
-1352.928668420085
 33
0.0
 14
31288.37407113081
 24
-1758.728668420087
 34
0.0
 50
90.0
100
AcDbRotatedDimension
  0
LINE
  5
823D
330
1F
100
AcDbEntity
  8
0
100
AcDbLine
 10
31202.97407113082
 20
-1841.296242384494
 30
0.0
 11
31219.08595869456
 21
-2000.455959934365
 31
0.0
  0
LINE
  5
823E
102
{ACAD_REACTORS
330
8261
102
}
330
1F
100
AcDbEntity
  8
0
100
AcDbLine
 10
31177.97407113082
 20
-1841.296242384494
 30
0.0
 11
31583.77407113083
 21
-1841.296242384494
 31
0.0
  0
LINE
  5
823F
330
1F
100
AcDbEntity
  8
0
100
AcDbLine
 10
31562.77407113083
 20
-1841.296242384494
 30
0.0
 11
31546.66218356708
 21
-2000.455959934364
 31
0.0
  0
ARC
  5
8240
330
1F
100
AcDbEntity
  8
0
100
AcDbCircle
 10
31380.87407113081
 20
1536.519210604076
 30
0.0
 40
3582.812500000001
100
AcDbArc
 50
269.2803480864963
 51
270.7196519135038
  0
ARC
  5
8241
330
1F
100
AcDbEntity
  8
0
100
AcDbCircle
 10
31382.87407113084
 20
-792.8754304674408
 30
0.0
 40
1250.420811917054
100
AcDbArc
 50
264.201481185526
 51
275.7985188144742
  0
ARC
  5
8242
330
1F
100
AcDbEntity
  8
0
100
AcDbCircle
 10
31258.93374661823
 20
-1996.969730224458
 30
0.0
 40
40.0
100
AcDbArc
 50
185.0000000000027
 51
266.5739446236726
  0
ARC
  5
8243
330
1F
100
AcDbEntity
  8
0
100
AcDbCircle
 10
31506.81439564341
 20
-1996.969730224457
 30
0.0
 40
40.0
100
AcDbArc
 50
273.4260553763274
 51
354.9999999999977
  0
LINE
  5
8244
330
1F
100
AcDbEntity
  8
0
100
AcDbLine
 10
31323.37407113082
 20
-2042.831468661125
 30
0.0
 11
31335.87407113081
 21
-2046.010679034844
 31
0.0
  0
LINE
  5
8245
330
1F
100
AcDbEntity
  8
0
100
AcDbLine
 10
31425.87407113081
 20
-2046.010679034844
 30
0.0
 11
31438.37407113081
 21
-2042.831468661125
 31
0.0
  0
DIMENSION
  5
8246
102
{ACAD_XDICTIONARY
360
8255
102
}
102
{ACAD_REACTORS
330
8261
102
}
330
1F
100
AcDbEntity
  8
0
100
AcDbDimension
  2
*D179
 10
31064.75655325318
 20
-2046.293289395924
 30
0.0
 11
31064.75655325318
 21
-1943.794765890204
 31
0.0
 70
   160
  1
8"
 71
     5
 42
204.9970470114297
  3
副本 ISO-25
100
AcDbAlignedDimension
 13
31177.97407113082
 23
-1841.296242384494
 33
0.0
 14
31190.0436083557
 24
-2046.293289395924
 34
0.0
 50
90.0
100
AcDbRotatedDimension
  0
VIEWPORT
  5
1F5E
330
D2
100
AcDbEntity
 67
     1
  8
0
100
AcDbViewport
 10
183.3429630404507
 20
52.14762292272986
 30
0.0
 40
552.7747907795959
 41
221.6164682392424
 68
     1
 69
     1
 12
183.3429630404507
 22
52.14762292272986
 13
0.0
 23
0.0
 14
10.0
 24
10.0
 15
10.0
 25
10.0
 16
0.0
 26
0.0
 36
1.0
 17
0.0
 27
0.0
 37
0.0
 42
50.0
 43
0.0
 44
0.0
 45
221.6164682392424
 50
0.0
 51
0.0
 72
  1000
 90
   819232
  1

281
     0
 71
     1
 74
     0
110
0.0
120
0.0
130
0.0
111
1.0
121
0.0
131
0.0
112
0.0
122
1.0
132
0.0
 79
     0
146
0.0
170
     0
  0
VIEWPORT
  5
1F60
330
D2
100
AcDbEntity
 67
     1
  8
0
100
AcDbViewport
 10
128.5
 20
97.5
 30
0.0
 40
205.6
 41
156.0
 68
     2
 69
     2
 12
31548.07096812262
 22
2834.266945083669
 13
0.0
 23
0.0
 14
10.0
 24
10.0
 15
10.0
 25
10.0
 16
0.0
 26
0.0
 36
1.0
 17
0.0
 27
0.0
 37
0.0
 42
50.0
 43
0.0
 44
0.0
 45
7150.051894744617
 50
0.0
 51
0.0
 72
  1000
 90
   557152
  1

281
     0
 71
     1
 74
     0
110
0.0
120
0.0
130
0.0
111
1.0
121
0.0
131
0.0
112
0.0
122
1.0
132
0.0
 79
     0
146
0.0
170
     0
  0
ENDSEC
  0
SECTION
  2
OBJECTS
  0
DICTIONARY
  5
C
330
0
100
AcDbDictionary
281
     1
  3
ACAD_COLOR
350
6B
  3
ACAD_GROUP
350
D
  3
ACAD_LAYOUT
350
1A
  3
ACAD_MATERIAL
350
6A
  3
ACAD_MLINESTYLE
350
17
  3
ACAD_PLOTSETTINGS
350
19
  3
ACAD_PLOTSTYLENAME
350
E
  3
ACAD_TABLESTYLE
350
7E
  3
ACAD_VISUALSTYLE
350
F0
  3
AcDbVariableDictionary
350
5E
  3
lxx_dict
350
E1A
  0
DICTIONARY
  5
2E1
330
2
100
AcDbDictionary
280
     1
281
     1
  3
ACAD_LAYERSTATES
360
2E2
  0
DICTIONARY
  5
ACC
330
1F
100
AcDbDictionary
280
     1
281
     1
  3
ACAD_SORTENTS
360
ACD
  0
DICTIONARY
  5
E26
330
E24
100
AcDbDictionary
280
     1
281
     1
  3
ACAD_SORTENTS
360
E27
  0
DICTIONARY
  5
538A
330
536B
100
AcDbDictionary
280
     1
281
     1
  3
ACAD_SORTENTS
360
538B
  0
DICTIONARY
  5
8041
330
803F
100
AcDbDictionary
280
     1
281
     1
  3
ACAD_SORTENTS
360
8042
  0
DICTIONARY
  5
8230
330
8226
100
AcDbDictionary
280
     1
281
     1
  3
ACAD_SORTENTS
360
8231
  0
DICTIONARY
  5
537F
330
537E
100
AcDbDictionary
280
     1
281
     1
  3
ACAD_DIMASSOC
360
5380
  0
DICTIONARY
  5
5382
330
5381
100
AcDbDictionary
280
     1
281
     1
  3
ACAD_DIMASSOC
360
5383
  0
DICTIONARY
  5
5385
330
5384
100
AcDbDictionary
280
     1
281
     1
  3
ACAD_DIMASSOC
360
5386
  0
DICTIONARY
  5
5388
330
5387
100
AcDbDictionary
280
     1
281
     1
  3
ACAD_DIMASSOC
360
5389
  0
DICTIONARY
  5
7F91
330
7F90
100
AcDbDictionary
280
     1
281
     1
  3
ACAD_DIMASSOC
360
7F92
  0
DICTIONARY
  5
7F94
330
7F93
100
AcDbDictionary
280
     1
281
     1
  3
ACAD_DIMASSOC
360
7F95
  0
DICTIONARY
  5
8255
330
8246
100
AcDbDictionary
280
     1
281
     1
  3
ACAD_DIMASSOC
360
8261
  0
DICTIONARY
  5
6B
102
{ACAD_REACTORS
330
C
102
}
330
C
100
AcDbDictionary
281
     1
  0
DICTIONARY
  5
D
102
{ACAD_REACTORS
330
C
102
}
330
C
100
AcDbDictionary
281
     1
  0
DICTIONARY
  5
1A
102
{ACAD_REACTORS
330
C
102
}
330
C
100
AcDbDictionary
281
     1
  3
Model
350
22
  3
布局1
350
D3
  3
布局2
350
D7
  0
DICTIONARY
  5
6A
102
{ACAD_REACTORS
330
C
102
}
330
C
100
AcDbDictionary
281
     1
  3
ByBlock
350
EE
  3
ByLayer
350
ED
  3
Global
350
EF
  0
DICTIONARY
  5
17
102
{ACAD_REACTORS
330
C
102
}
330
C
100
AcDbDictionary
281
     1
  3
Standard
350
18
  0
DICTIONARY
  5
19
102
{ACAD_REACTORS
330
C
102
}
330
C
100
AcDbDictionary
281
     1
  0
ACDBDICTIONARYWDFLT
  5
E
102
{ACAD_REACTORS
330
C
102
}
330
C
100
AcDbDictionary
281
     1
  3
Normal
350
F
100
AcDbDictionaryWithDefault
340
F
  0
DICTIONARY
  5
7E
102
{ACAD_REACTORS
330
C
102
}
330
C
100
AcDbDictionary
281
     1
  3
Standard
350
7F
  0
DICTIONARY
  5
F0
102
{ACAD_REACTORS
330
C
102
}
330
C
100
AcDbDictionary
281
     1
  3
2dWireframe
350
F6
  3
3D Hidden
350
F8
  3
3dWireframe
350
F7
  3
Basic
350
F5
  3
Brighten
350
FC
  3
ColorChange
350
100
  3
Conceptual
350
F9
  3
Dim
350
FB
  3
Facepattern
350
FF
  3
Flat
350
F1
  3
FlatWithEdges
350
F2
  3
Gouraud
350
F3
  3
GouraudWithEdges
350
F4
  3
Linepattern
350
FE
  3
Realistic
350
FA
  3
Thicken
350
FD
  0
DICTIONARY
  5
5E
102
{ACAD_REACTORS
330
C
102
}
330
C
100
AcDbDictionary
281
     1
  3
CTABLESTYLE
350
84
  3
DIMASSOC
350
5F
  3
HIDETEXT
350
63
  3
LOFTANG1
350
82EA
  3
LOFTANG2
350
82EB
  3
PSOLHEIGHT
350
82E9
  3
PSOLWIDTH
350
82E8
  0
DICTIONARY
  5
E1A
102
{ACAD_REACTORS
330
C
102
}
330
C
100
AcDbDictionary
281
     1
  3
lxx_dimth
350
E1B
  0
DICTIONARY
  5
2E2
102
{ACAD_REACTORS
330
2E1
102
}
330
2E1
100
AcDbDictionary
281
     1
  0
SORTENTSTABLE
  5
ACD
102
{ACAD_REACTORS
330
ACC
102
}
330
ACC
100
AcDbSortentsTable
330
1F
  0
SORTENTSTABLE
  5
E27
102
{ACAD_REACTORS
330
E26
102
}
330
E26
100
AcDbSortentsTable
330
E24
  0
SORTENTSTABLE
  5
538B
102
{ACAD_REACTORS
330
538A
102
}
330
538A
100
AcDbSortentsTable
330
536B
  0
SORTENTSTABLE
  5
8042
102
{ACAD_REACTORS
330
8041
102
}
330
8041
100
AcDbSortentsTable
330
803F
  0
SORTENTSTABLE
  5
8231
102
{ACAD_REACTORS
330
8230
102
}
330
8230
100
AcDbSortentsTable
330
8226
  0
DIMASSOC
  5
5380
102
{ACAD_REACTORS
330
537F
102
}
330
537F
100
AcDbDimAssoc
330
537E
 90
        3
 70
     0
 71
     0
  1
AcDbOsnapPointRef
 72
    13
331
537D
 73
     2
 91
        0
 40
0.0
 10
0.0
 20
0.0
 30
2.000000000000000E+50
 75
     0
  1
AcDbOsnapPointRef
 72
     1
331
5379
 73
     2
 91
        0
 40
1.0
 10
0.0
 20
0.0
 30
2.000000000000000E+50
 75
     0
  0
DIMASSOC
  5
5383
102
{ACAD_REACTORS
330
5382
102
}
330
5382
100
AcDbDimAssoc
330
5381
 90
        3
 70
     0
 71
     0
  1
AcDbOsnapPointRef
 72
    13
331
5373
 73
     2
 91
        0
 40
0.0
 10
0.0
 20
0.0
 30
2.000000000000000E+50
 75
     0
  1
AcDbOsnapPointRef
 72
     1
331
536F
 73
     2
 91
        0
 40
1.0
 10
0.0
 20
0.0
 30
2.000000000000000E+50
 75
     0
  0
DIMASSOC
  5
5386
102
{ACAD_REACTORS
330
5385
102
}
330
5385
100
AcDbDimAssoc
330
5384
 90
        3
 70
     0
 71
     0
  1
AcDbOsnapPointRef
 72
    13
331
5378
 73
     2
 91
        0
 40
0.0
 10
0.0
 20
0.0
 30
2.000000000000000E+50
 75
     0
  1
AcDbOsnapPointRef
 72
     1
331
537B
 73
     2
 91
        0
 40
1.0
 10
0.0
 20
0.0
 30
2.000000000000000E+50
 75
     0
  0
DIMASSOC
  5
5389
102
{ACAD_REACTORS
330
5388
102
}
330
5388
100
AcDbDimAssoc
330
5387
 90
        1
 70
     0
 71
     0
  1
AcDbOsnapPointRef
 72
    13
331
5371
 73
     2
 91
        0
 40
0.0
 10
0.0
 20
0.0
 30
2.000000000000000E+50
 75
     0
  0
DIMASSOC
  5
7F92
102
{ACAD_REACTORS
330
7F91
102
}
330
7F91
100
AcDbDimAssoc
330
7F90
 90
        3
 70
     0
 71
     0
  1
AcDbOsnapPointRef
 72
    13
331
7F83
 73
     2
 91
        0
 40
0.0
 10
0.0
 20
0.0
 30
2.000000000000000E+50
 75
     0
  1
AcDbOsnapPointRef
 72
     1
331
7F87
 73
     2
 91
        0
 40
1.570796326794896
 10
0.0
 20
0.0
 30
2.000000000000000E+50
 75
     0
  0
DIMASSOC
  5
7F95
102
{ACAD_REACTORS
330
7F94
102
}
330
7F94
100
AcDbDimAssoc
330
7F93
 90
        3
 70
     0
 71
     0
  1
AcDbOsnapPointRef
 72
    13
331
7F7E
 73
     2
 91
        0
 40
0.0
 10
0.0
 20
0.0
 30
2.000000000000000E+50
 75
     0
  1
AcDbOsnapPointRef
 72
     1
331
7F79
 73
     2
 91
        0
 40
4.712388980384689
 10
0.0
 20
0.0
 30
2.000000000000000E+50
 75
     0
  0
DIMASSOC
  5
8261
102
{ACAD_REACTORS
330
8255
102
}
330
8255
100
AcDbDimAssoc
330
8246
 90
        1
 70
     0
 71
     0
  1
AcDbOsnapPointRef
 72
    13
331
823E
 73
     2
 91
        0
 40
0.0
 10
0.0
 20
0.0
 30
2.000000000000000E+50
 75
     0
  0
LAYOUT
  5
22
102
{ACAD_REACTORS
330
1A
102
}
330
1A
100
AcDbPlotSettings
  1

  2
DWG To PDF.pc3
  4
ISO_A4_(210.00_x_297.00_MM)
  6

 40
5.793749809265136
 41
17.79375076293945
 42
5.793746948242187
 43
17.79376220703125
 44
210.0
 45
297.0
 46
13.48822969152049
 47
0.0
 48
30904.65969234929
 49
-2377.461783422094
140
31735.89215325048
141
-1109.965520603426
142
1.0
143
4.848644673477538
 70
 11956
 72
     1
 73
     0
 74
     4
  7

 75
     0
147
0.2062432014187547
 76
     0
 77
     2
 78
   300
148
-30904.65969234929
149
2377.461783422094
100
AcDbLayout
  1
Model
 70
     1
 71
     0
 10
0.0
 20
0.0
 11
12.0
 21
9.0
 12
0.0
 22
0.0
 32
0.0
 14
0.0
 24
0.0
 34
0.0
 15
0.0
 25
0.0
 35
0.0
146
0.0
 13
0.0
 23
0.0
 33
0.0
 16
1.0
 26
0.0
 36
0.0
 17
0.0
 27
1.0
 37
0.0
 76
     0
330
1F
331
EB
1001
ACAD_PSEXT
1000
DWG To PDF.pc3
1000
PDF
1000
文件
1000

1070
     0
  0
LAYOUT
  5
D3
102
{ACAD_XDICTIONARY
360
1F65
102
}
102
{ACAD_REACTORS
330
1A
102
}
330
1A
100
AcDbPlotSettings
  1

  2
none_device
  4
ISO_A4_(210.00_x_297.00_MM)
  6

 40
7.5
 41
20.0
 42
7.5
 43
20.0
 44
210.0
 45
297.0
 46
0.0
 47
0.0
 48
0.0
 49
0.0
140
0.0
141
0.0
142
1.0
143
1.0
 70
   688
 72
     1
 73
     1
 74
     5
  7

 75
    16
147
1.0
 76
     0
 77
     2
 78
   300
148
0.0
149
0.0
100
AcDbLayout
  1
布局1
 70
     1
 71
     1
 10
-20.0
 20
-7.5
 11
277.0
 21
202.5
 12
0.0
 22
0.0
 32
0.0
 14
25.69999999999999
 24
19.5
 34
0.0
 15
231.3
 25
175.5
 35
0.0
146
0.0
 13
0.0
 23
0.0
 33
0.0
 16
1.0
 26
0.0
 36
0.0
 17
0.0
 27
1.0
 37
0.0
 76
     0
330
D2
331
1F5E
1001
ACAD_PSEXT
1000
无
1000
无
1000
不可用
1000
在选择新的绘图仪配置名称之前，不能打印该布局。
1070
     0
  0
LAYOUT
  5
D7
102
{ACAD_REACTORS
330
1A
102
}
330
1A
100
AcDbPlotSettings
  1

  2
C:\Documents and Settings\basas\Application Data\Autodesk\AutoCAD 2005\R16.1\enu\plotters\Default Windows System Printer.pc3
  4

  6

 40
0.0
 41
0.0
 42
0.0
 43
0.0
 44
0.0
 45
0.0
 46
0.0
 47
0.0
 48
0.0
 49
0.0
140
0.0
141
0.0
142
1.0
143
1.0
 70
   688
 72
     0
 73
     0
 74
     5
  7

 75
    16
147
1.0
 76
     0
 77
     2
 78
   300
148
0.0
149
0.0
100
AcDbLayout
  1
布局2
 70
     1
 71
     2
 10
0.0
 20
0.0
 11
12.0
 21
9.0
 12
0.0
 22
0.0
 32
0.0
 14
0.0
 24
0.0
 34
0.0
 15
0.0
 25
0.0
 35
0.0
146
0.0
 13
0.0
 23
0.0
 33
0.0
 16
1.0
 26
0.0
 36
0.0
 17
0.0
 27
1.0
 37
0.0
 76
     0
330
D6
  0
MATERIAL
  5
EE
102
{ACAD_XDICTIONARY
360
82F8
102
}
102
{ACAD_REACTORS
330
6A
102
}
330
6A
100
AcDbMaterial
  1
ByBlock
  0
MATERIAL
  5
ED
102
{ACAD_XDICTIONARY
360
82F6
102
}
102
{ACAD_REACTORS
330
6A
102
}
330
6A
100
AcDbMaterial
  1
ByLayer
  0
MATERIAL
  5
EF
102
{ACAD_XDICTIONARY
360
82FA
102
}
102
{ACAD_REACTORS
330
6A
102
}
330
6A
100
AcDbMaterial
  1
Global
  0
MLINESTYLE
  5
18
102
{ACAD_REACTORS
330
17
102
}
330
17
100
AcDbMlineStyle
  2
STANDARD
 70
     0
  3

 62
   256
 51
90.0
 52
90.0
 71
     2
 49
0.5
 62
   256
  6
BYLAYER
 49
-0.5
 62
   256
  6
BYLAYER
  0
ACDBPLACEHOLDER
  5
F
102
{ACAD_REACTORS
330
E
102
}
330
E
  0
TABLESTYLE
  5
7F
102
{ACAD_XDICTIONARY
360
82F4
102
}
102
{ACAD_REACTORS
330
7E
102
}
330
7E
100
AcDbTableStyle
  3
Standard
 70
     0
 71
     0
 40
1.5
 41
1.5
280
     0
281
     0
  7
Standard
140
4.5
170
     2
 62
     0
 63
     7
283
     0
274
    -2
284
     1
 64
     0
275
    -2
285
     1
 65
     0
276
    -2
286
     1
 66
     0
277
    -2
287
     1
 67
     0
278
    -2
288
     1
 68
     0
279
    -2
289
     1
 69
     0
  7
Standard
140
6.0
170
     5
 62
     0
 63
     7
283
     0
274
    -2
284
     1
 64
     0
275
    -2
285
     1
 65
     0
276
    -2
286
     1
 66
     0
277
    -2
287
     1
 67
     0
278
    -2
288
     1
 68
     0
279
    -2
289
     1
 69
     0
  7
Standard
140
4.5
170
     5
 62
     0
 63
     7
283
     0
274
    -2
284
     1
 64
     0
275
    -2
285
     1
 65
     0
276
    -2
286
     1
 66
     0
277
    -2
287
     1
 67
     0
278
    -2
288
     1
 68
     0
279
    -2
289
     1
 69
     0
  0
VISUALSTYLE
  5
F6
102
{ACAD_REACTORS
330
F0
102
}
330
F0
100
AcDbVisualStyle
  2
2dWireframe
 70
     4
 71
     0
 72
     2
 73
     1
 90
        0
 40
-0.6
 41
-30.0
 62
     5
 63
     7
421
 16777215
 74
     1
 91
        4
 64
     7
 65
   257
 75
     1
175
     1
 42
1.0
 92
        0
 66
   257
 43
1.0
 76
     1
 77
     6
 78
     2
 67
     7
 79
     5
170
     0
171
     0
290
     0
174
     0
 93
        1
 44
0.0
173
     0
291
     0
 45
0.0
1001
ACAD
1000
AcDbSavedByObjectVersion
1070
     0
  0
VISUALSTYLE
  5
F8
102
{ACAD_REACTORS
330
F0
102
}
330
F0
100
AcDbVisualStyle
  2
3D Hidden
 70
     6
 71
     1
 72
     2
 73
     2
 90
        0
 40
-0.6
 41
-30.0
 62
     5
 63
     7
421
 16777215
 74
     2
 91
        2
 64
     7
 65
   257
 75
     2
175
     1
 42
40.0
 92
        0
 66
   257
 43
1.0
 76
     1
 77
     6
 78
     2
 67
     7
 79
     3
170
     0
171
     0
290
     0
174
     0
 93
        1
 44
0.0
173
     0
291
     0
 45
0.0
1001
ACAD
1000
AcDbSavedByObjectVersion
1070
     0
  0
VISUALSTYLE
  5
F7
102
{ACAD_REACTORS
330
F0
102
}
330
F0
100
AcDbVisualStyle
  2
3dWireframe
 70
     5
 71
     0
 72
     2
 73
     1
 90
        0
 40
-0.6
 41
-30.0
 62
     5
 63
     7
421
 16777215
 74
     1
 91
        4
 64
     7
 65
   257
 75
     1
175
     1
 42
1.0
 92
        0
 66
   257
 43
1.0
 76
     1
 77
     6
 78
     2
 67
     7
 79
     5
170
     0
171
     0
290
     0
174
     0
 93
        1
 44
0.0
173
     0
291
     0
 45
0.0
1001
ACAD
1000
AcDbSavedByObjectVersion
1070
     0
  0
VISUALSTYLE
  5
F5
102
{ACAD_REACTORS
330
F0
102
}
330
F0
100
AcDbVisualStyle
  2
Basic
 70
     7
 71
     1
 72
     0
 73
     1
 90
        0
 40
-0.6
 41
-30.0
 62
     5
 63
     7
421
 16777215
 74
     0
 91
        4
 64
     7
 65
   257
 75
     1
175
     1
 42
1.0
 92
        8
 66
     7
 43
1.0
 76
     1
 77
     6
 78
     2
 67
     7
 79
     5
170
     0
171
     0
290
     0
174
     0
 93
        1
 44
0.0
173
     0
291
     1
 45
0.0
1001
ACAD
1000
AcDbSavedByObjectVersion
1070
     0
  0
VISUALSTYLE
  5
FC
102
{ACAD_REACTORS
330
F0
102
}
330
F0
100
AcDbVisualStyle
  2
Brighten
 70
    12
 71
     2
 72
     2
 73
     1
 90
        0
 40
-0.6
 41
-30.0
 62
     5
 63
     7
421
 16777215
 74
     1
 91
        4
 64
     7
 65
   257
 75
     1
175
     1
 42
1.0
 92
        8
 66
     7
 43
1.0
 76
     1
 77
     6
 78
     2
 67
     7
 79
     5
170
     0
171
     0
290
     0
174
     0
 93
        1
 44
50.0
173
     0
291
     1
 45
0.0
1001
ACAD
1000
AcDbSavedByObjectVersion
1070
     0
  0
VISUALSTYLE
  5
100
102
{ACAD_REACTORS
330
F0
102
}
330
F0
100
AcDbVisualStyle
  2
ColorChange
 70
    16
 71
     2
 72
     2
 73
     3
 90
        0
 40
-0.6
 41
-30.0
 62
     5
 63
     8
421
  8421504
 74
     1
 91
        4
 64
     7
 65
   257
 75
     1
175
     1
 42
1.0
 92
        8
 66
     8
424
  8421504
 43
1.0
 76
     1
 77
     6
 78
     2
 67
     7
 79
     5
170
     0
171
     0
290
     0
174
     0
 93
        1
 44
0.0
173
     0
291
     1
 45
0.0
1001
ACAD
1000
AcDbSavedByObjectVersion
1070
     0
  0
VISUALSTYLE
  5
F9
102
{ACAD_REACTORS
330
F0
102
}
330
F0
100
AcDbVisualStyle
  2
Conceptual
 70
     9
 71
     3
 72
     2
 73
     1
 90
        0
 40
-0.6
 41
-30.0
 62
     5
 63
     7
421
 16777215
 74
     2
 91
        2
 64
     7
 65
   257
 75
     1
175
     1
 42
40.0
 92
        8
 66
     7
 43
1.0
 76
     1
 77
     6
 78
     2
 67
     7
 79
     3
170
     0
171
     0
290
     0
174
     0
 93
        1
 44
0.0
173
     0
291
     0
 45
0.0
1001
ACAD
1000
AcDbSavedByObjectVersion
1070
     0
  0
VISUALSTYLE
  5
FB
102
{ACAD_REACTORS
330
F0
102
}
330
F0
100
AcDbVisualStyle
  2
Dim
 70
    11
 71
     2
 72
     2
 73
     1
 90
        0
 40
-0.6
 41
-30.0
 62
     5
 63
     7
421
 16777215
 74
     1
 91
        4
 64
     7
 65
   257
 75
     1
175
     1
 42
1.0
 92
        8
 66
     7
 43
1.0
 76
     1
 77
     6
 78
     2
 67
     7
 79
     5
170
     0
171
     0
290
     0
174
     0
 93
        1
 44
-50.0
173
     0
291
     1
 45
0.0
1001
ACAD
1000
AcDbSavedByObjectVersion
1070
     0
  0
VISUALSTYLE
  5
FF
102
{ACAD_REACTORS
330
F0
102
}
330
F0
100
AcDbVisualStyle
  2
Facepattern
 70
    15
 71
     2
 72
     2
 73
     1
 90
        0
 40
-0.6
 41
-30.0
 62
     5
 63
     7
421
 16777215
 74
     1
 91
        4
 64
     7
 65
   257
 75
     1
175
     1
 42
1.0
 92
        8
 66
     7
 43
1.0
 76
     1
 77
     6
 78
     2
 67
     7
 79
     5
170
     0
171
     0
290
     0
174
     0
 93
        1
 44
0.0
173
     0
291
     1
 45
0.0
1001
ACAD
1000
AcDbSavedByObjectVersion
1070
     0
  0
VISUALSTYLE
  5
F1
102
{ACAD_REACTORS
330
F0
102
}
330
F0
100
AcDbVisualStyle
  2
Flat
 70
     0
 71
     2
 72
     1
 73
     1
 90
        2
 40
-0.6
 41
30.0
 62
     5
 63
     7
421
 16777215
 74
     0
 91
        4
 64
     7
 65
   257
 75
     1
175
     1
 42
1.0
 92
        8
 66
     7
 43
1.0
 76
     1
 77
     6
 78
     2
 67
     7
 79
     5
170
     0
171
     0
290
     0
174
     0
 93
        1
 44
0.0
173
     0
291
     1
 45
0.0
1001
ACAD
1000
AcDbSavedByObjectVersion
1070
     0
  0
VISUALSTYLE
  5
F2
102
{ACAD_REACTORS
330
F0
102
}
330
F0
100
AcDbVisualStyle
  2
FlatWithEdges
 70
     1
 71
     2
 72
     1
 73
     1
 90
        2
 40
-0.6
 41
30.0
 62
     5
 63
     7
421
 16777215
 74
     1
 91
        4
 64
     7
 65
   257
 75
     1
175
     1
 42
1.0
 92
        0
 66
   257
 43
1.0
 76
     1
 77
     6
 78
     2
 67
     7
 79
     5
170
     0
171
     0
290
     0
174
     0
 93
        1
 44
0.0
173
     0
291
     1
 45
0.0
1001
ACAD
1000
AcDbSavedByObjectVersion
1070
     0
  0
VISUALSTYLE
  5
F3
102
{ACAD_REACTORS
330
F0
102
}
330
F0
100
AcDbVisualStyle
  2
Gouraud
 70
     2
 71
     2
 72
     2
 73
     1
 90
        2
 40
-0.6
 41
30.0
 62
     5
 63
     7
421
 16777215
 74
     0
 91
        4
 64
     7
 65
   257
 75
     1
175
     1
 42
1.0
 92
        0
 66
     7
 43
1.0
 76
     1
 77
     6
 78
     2
 67
     7
 79
     5
170
     0
171
     0
290
     0
174
     0
 93
        1
 44
0.0
173
     0
291
     1
 45
0.0
1001
ACAD
1000
AcDbSavedByObjectVersion
1070
     0
  0
VISUALSTYLE
  5
F4
102
{ACAD_REACTORS
330
F0
102
}
330
F0
100
AcDbVisualStyle
  2
GouraudWithEdges
 70
     3
 71
     2
 72
     2
 73
     1
 90
        2
 40
-0.6
 41
30.0
 62
     5
 63
     7
421
 16777215
 74
     1
 91
        4
 64
     7
 65
   257
 75
     1
175
     1
 42
1.0
 92
        0
 66
   257
 43
1.0
 76
     1
 77
     6
 78
     2
 67
     7
 79
     5
170
     0
171
     0
290
     0
174
     0
 93
        1
 44
0.0
173
     0
291
     1
 45
0.0
1001
ACAD
1000
AcDbSavedByObjectVersion
1070
     0
  0
VISUALSTYLE
  5
FE
102
{ACAD_REACTORS
330
F0
102
}
330
F0
100
AcDbVisualStyle
  2
Linepattern
 70
    14
 71
     2
 72
     2
 73
     1
 90
        0
 40
-0.6
 41
-30.0
 62
     5
 63
     7
421
 16777215
 74
     1
 91
        4
 64
     7
 65
   257
 75
     7
175
     7
 42
1.0
 92
        8
 66
     7
 43
1.0
 76
     1
 77
     6
 78
     2
 67
     7
 79
     5
170
     0
171
     0
290
     0
174
     0
 93
        1
 44
0.0
173
     0
291
     1
 45
0.0
1001
ACAD
1000
AcDbSavedByObjectVersion
1070
     0
  0
VISUALSTYLE
  5
FA
102
{ACAD_REACTORS
330
F0
102
}
330
F0
100
AcDbVisualStyle
  2
Realistic
 70
     8
 71
     2
 72
     2
 73
     1
 90
        0
 40
-0.6
 41
-30.0
 62
     5
 63
     7
421
 16777215
 74
     1
 91
        0
 64
     7
 65
   257
 75
     1
175
     1
 42
1.0
 92
        8
 66
     8
424
  7895160
 43
1.0
 76
     1
 77
     6
 78
     2
 67
     7
 79
     5
170
     0
171
     0
290
     0
174
     0
 93
       13
 44
0.0
173
     0
291
     0
 45
0.0
1001
ACAD
1000
AcDbSavedByObjectVersion
1070
     0
  0
VISUALSTYLE
  5
FD
102
{ACAD_REACTORS
330
F0
102
}
330
F0
100
AcDbVisualStyle
  2
Thicken
 70
    13
 71
     2
 72
     2
 73
     1
 90
        0
 40
-0.6
 41
-30.0
 62
     5
 63
     7
421
 16777215
 74
     1
 91
        4
 64
     7
 65
   257
 75
     1
175
     1
 42
1.0
 92
       12
 66
     7
 43
1.0
 76
     1
 77
     6
 78
     2
 67
     7
 79
     5
170
     0
171
     0
290
     0
174
     0
 93
        1
 44
0.0
173
     0
291
     1
 45
0.0
1001
ACAD
1000
AcDbSavedByObjectVersion
1070
     0
  0
DICTIONARYVAR
  5
84
102
{ACAD_REACTORS
330
5E
102
}
330
5E
100
DictionaryVariables
280
     0
  1
STANDARD
  0
DICTIONARYVAR
  5
5F
102
{ACAD_REACTORS
330
5E
102
}
330
5E
100
DictionaryVariables
280
     0
  1
2
  0
DICTIONARYVAR
  5
63
102
{ACAD_REACTORS
330
5E
102
}
330
5E
100
DictionaryVariables
280
     0
  1
1
  0
DICTIONARYVAR
  5
82EA
102
{ACAD_REACTORS
330
5E
102
}
330
5E
100
DictionaryVariables
280
     0
  1
1.570796
  0
DICTIONARYVAR
  5
82EB
102
{ACAD_REACTORS
330
5E
102
}
330
5E
100
DictionaryVariables
280
     0
  1
1.570796
  0
DICTIONARYVAR
  5
82E9
102
{ACAD_REACTORS
330
5E
102
}
330
5E
100
DictionaryVariables
280
     0
  1
80.000000
  0
DICTIONARYVAR
  5
82E8
102
{ACAD_REACTORS
330
5E
102
}
330
5E
100
DictionaryVariables
280
     0
  1
5.000000
  0
VLO-VL
  5
E1B
102
{ACAD_REACTORS
330
E1A
102
}
330
E1A
100
vlo_VL
 90
   -64512
 91
       12
 92
        1
 40
2.5
300
(&VLO-R . 0)
  0
DICTIONARY
  5
1F65
330
D3
100
AcDbDictionary
280
     1
281
     1
  3
ADSK_XREC_LAYOUTTHUMBNAIL
360
1F66
  0
DICTIONARY
  5
82F8
330
EE
100
AcDbDictionary
280
     1
281
     1
  3
ACAD_XREC_ROUNDTRIP
360
82F9
  0
DICTIONARY
  5
82F6
330
ED
100
AcDbDictionary
280
     1
281
     1
  3
ACAD_XREC_ROUNDTRIP
360
82F7
  0
DICTIONARY
  5
82FA
330
EF
100
AcDbDictionary
280
     1
281
     1
  3
ACAD_XREC_ROUNDTRIP
360
82FB
  0
DICTIONARY
  5
82F4
330
7F
100
AcDbDictionary
280
     1
281
     1
  3
ACAD_XREC_ROUNDTRIP
360
82F5
  0
XRECORD
  5
1F66
102
{ACAD_REACTORS
330
1F65
102
}
330
1F65
100
AcDbXrecord
280
     1
310
28000000B40000007F00000001000800000000004C59000000000000000000000001000000000000FFFFFF0000000000FFFFFF000000000000000000000000000000000000000000000000000000000000000000330000006600000099000000CC000000FF00000000330000333300006633000099330000CC330000FF3300
310
0000660000336600006666000099660000CC660000FF66000000990000339900006699000099990000CC990000FF99000000CC000033CC000066CC000099CC0000CCCC0000FFCC000000FF000033FF000066FF000099FF0000CCFF0000FFFF000000003300330033006600330099003300CC003300FF003300003333003333
310
33006633330099333300CC333300FF33330000663300336633006666330099663300CC663300FF66330000993300339933006699330099993300CC993300FF99330000CC330033CC330066CC330099CC3300CCCC3300FFCC330000FF330033FF330066FF330099FF3300CCFF3300FFFF330000006600330066006600660099
310
006600CC006600FF00660000336600333366006633660099336600CC336600FF33660000666600336666006666660099666600CC666600FF66660000996600339966006699660099996600CC996600FF99660000CC660033CC660066CC660099CC6600CCCC6600FFCC660000FF660033FF660066FF660099FF6600CCFF6600
310
FFFF660000009900330099006600990099009900CC009900FF00990000339900333399006633990099339900CC339900FF33990000669900336699006666990099669900CC669900FF66990000999900339999006699990099999900CC999900FF99990000CC990033CC990066CC990099CC9900CCCC9900FFCC990000FF99
310
0033FF990066FF990099FF9900CCFF9900FFFF99000000CC003300CC006600CC009900CC00CC00CC00FF00CC000033CC003333CC006633CC009933CC00CC33CC00FF33CC000066CC003366CC006666CC009966CC00CC66CC00FF66CC000099CC003399CC006699CC009999CC00CC99CC00FF99CC0000CCCC0033CCCC0066CC
310
CC0099CCCC00CCCCCC00FFCCCC0000FFCC0033FFCC0066FFCC0099FFCC00CCFFCC00FFFFCC000000FF003300FF006600FF009900FF00CC00FF00FF00FF000033FF003333FF006633FF009933FF00CC33FF00FF33FF000066FF003366FF006666FF009966FF00CC66FF00FF66FF000099FF003399FF006699FF009999FF00CC
310
99FF00FF99FF0000CCFF0033CCFF0066CCFF0099CCFF00CCCCFF00FFCCFF0000FFFF0033FFFF0066FFFF0099FFFF00CCFFFF00FFFFFF00000000000D0D0D001A1A1A00282828003535350043434300505050005D5D5D006B6B6B00787878008686860093939300A1A1A100AEAEAE00BBBBBB00C9C9C900D6D6D600E4E4E400
310
F1F1F100FFFFFF0000000000000000000000000000000000000000000000000000000000000000000000000000000000E2E2E2E2E2E2E2E2E2E2E2E2E2E2E2E2E2E2E2E2E2E2E2E2E2E2E2E2E2E2E2E2E2E2E2E2E2E2E2E2E2E2E2E2E2E2E2E2E2E2E2E2E2E2E2E2E2E2E2E2E2E2E2E2E2E2E2E2E2E2E2E2E2E2E2E2E2E2E2
310
E2E2E2E2E2E2E2E2E2E2E2E2E2E2E2E2E2E2E2E2E2E2E2E2E2E2E2E2E2E2E2E2E2E2E2E2E2E2E2E2E2E2E2E2E2E2E2E2E2E2E2E2E2E2E2E2E2E2E2E2E2E2E2E2E2E2E2E2E2E2E2E2E2E2E2E2E2E2E2E2E2E2E2E2E2E2E2E2E2E2E2E2E2E2E2E2E2E2E2E2E2E2F5F5F5F5F5F5F5F5F5F5F5F5F5F5F5F5F5F5F5F5F5F5F5F5F5
310
F5F5F5F5F5F5F5F5F5F5F5F5F5F5F5F5F5F5F5F5F5F5F5F5F5F5F5F5F5F5F5F5F5F5F5F5F5F5F5F5F5F5F5F5F5F5F5F5F5F5F5F5F5F5F5F5F5F5F5F5F5F5F5F5F5F5F5F5F5F5F5F5F5F5F5F5F5F5F5F5F5F5F5F5F5F5F5F5F5F5F5F5F5F5F5F5F5F5F5F5F5F5F5F5F5F5F5F5F5F5F5F5F5F5F5F5F5F5F5F5F5F5F5F5F5F5F5
310
F5F5F5F5F5F5F5F5F5F5F5F5F5F5F5F5F5F5F5F5F5F5F5F5F5E2E2E2F5F5F5F5F5F5F5F5F5F5F5F5F5F5F5F5F5F5F5F5F5F5F5F5F5F5F5F5F5F5F5F5F5F5F5F5F5F5F5F5F5F5F5F5F5F5F5F5F5F5F5F5F5F5F5F5F5F5F5F5F5F5F5F5F5F5F5F5F5F5F5F5F5F5F5F5F5F5F5F5F5F5F5F5F5F5F5F5F5F5F5F5F5F5F5F5F5F5F5
310
F5F5F5F5F5F5F5F5F5F5F5F5F5F5F5F5F5F5F5F5F5F5F5F5F5F5F5F5F5F5F5F5F5F5F5F5F5F5F5F5F5F5F5F5F5F5F5F5F5F5F5F5F5F5F5F5F5F5F5F5F5F5F5F5F5F5F5F5F5F5F5F5F5F5F5F5F5F5E2E2E2F5F5F5F5F5F5F5F5F5F5F5F5F5F5F5F5F5F5F5F5F5F5F5F5F5F5F5F5F5F5F5F5F5F5F5F5F5F5F5F5F5F5F5F5F5F5
310
F5F5F5F5F5F5F5F5F5F5F5F5F5F5F5F5F5F5F5F5F5F5F5F5F5F5F5F5F5F5F5F5F5F5F5F5F5F5F5F5F5F5F5F5F5F5F5F5F5F5F5F5F5F5F5F5F5F5F5F5F5F5F5F5F5F5F5F5F5F5F5F5F5F5F5F5F5F5F5F5F5F5F5F5F5F5F5F5F5F5F5F5F5F5F5F5F5F5F5F5F5F5F5F5F5F5F5F5F5F5F5F5F5F5F5F5F5F5F5F5F5F5F5F5F5F5F5
310
F5F5F5F5E2E2E2F5F5F5F5F5F5F5F5F5F5F5F5F5F5F5F5F5F5F5F5F5F5F5F5F5F5F5F5F5F5F5F5F5F5F5F5F5F5F5F5F5F5F5F5F5F5F5F5F5F5F5F5F5F5F5F5F5F5F5F5F5F5F5F5F5F5F5F5F5F5F5F5F5F5F5F5F5F5F5F5F5F5F5F5F5F5F5F5F5F5F5F5F5F5F5F5F5F5F5F5F5F5F5F5F5F5F5F5F5F5F5F5F5F5F5F5F5F5F5F5
310
F5F5F5F5F5F5F5F5F5F5F5F5F5F5F5F5F5F5F5F5F5F5F5F5F5F5F5F5F5F5F5F5F5F5F5F5F5F5F5F5F5F5F5F5F5F5F5F5F5F5F5F5F5F5F5F5F5E2E2E2F5F5F5F5F5F5F5F5F5F5F5E2E2E2E2E2E2E2E2E2F5F5F5F5F5F5F5F5F5E2E2E2E2E2E2E2E2E2E2E2E2E2E2E2E2F5F5F5F5F5F5F5F5F5F5E2E2E2E2E2E2E2E2E2E2E2E2
310
E2E2E2E2F5F5F5F5F5F5F5F5F5E2E2E2E2E2E2E2E2E2E2E2E2E2E2E2E2E2F5F5F5F5F5F5F5F5F5E2E2E2E2E2E2E2E2E2E2E2E2E2E2E2E2F5F5F5F5F5F5F5F5F5F5E2E2E2E2E2E2E2E2E2E2E2E2E2E2E2E2F5F5F5F5F5F5F5F5F5E2E2E2E2E2E2E2E2E2F5F5F5F5F5F5F5F5F5F5F5E2E2E2F5F5F5F5F5F5F5F5F5F5F5E2F5F5
310
F5F5F5F5F5F5F5F5F5F5F5F5F5F5F5F5F5F5F5F5F5F5F5F5F5F5F5F5F5F5F5F5F5F5F5F5F5F5F5F5F5F5F5F5F5F5F5F5F5F5F5F5F5F5F5F5F5F5F5F5F5F5F5F5F5F5F5F5F5F5F5F5F5F5F5F5F5F5F5F5F5F5F5F5F5F5F5F5F5F5F5F5F5F5F5F5F5F5F5F5F5F5F5F5F5F5F5F5F5F5F5F5F5F5F5F5F5F5F5F5F5F5F5F5F5F5F5
310
F5F5F5F5F5F5F5F5F5F5F5F5F5F5F5F5F5F5F5F5F5F5F5F5E2F5F5F5F5F5F5F5F5F5F5F5E2E2E2F5F5F5F5F5F5F5F5F5F5F5E2F5F5F5F5F5F5F5F5F5F5F5F5F5F5F5F5F5F5F5F5F5F5F5F5F5F5F5F5F5F5F5F5F5F5F5F5F5F5F5F5F5F5F5F5F5F5F5F5F5F5F5F5F5F5F5F5F5F5F5F5F5F5F5F5F5F5F5F5F5F5F5F5F5F5F5F5
310
F5F5F5F5F5F5F5F5F5F5F5F5F5F5F5F5F5F5F5F5F5F5F5F5F5F5F5F5F5F5F5F5F5F5F5F5F5F5F5F5F5F5F5F5F5F5F5F5F5F5F5F5F5F5F5F5F5F5F5F5F5F5F5F5F5F5F5F5F5F5F5F5F5F5F5F5F5E2F5F5F5F5F5F5F5F5F5F5F5E2E2E2F5F5F5F5F5F5F5F5F5F5F5E2F5F5F5F5F5F5F5F5F5F5F5F5F5F5F5F5F5F5F5F5F5F5F5
310
F5F5F5F5F5F5F5F5F5F5F5F5F5F5F5F5F5F5F5F5F5F5F5F5F5F5F5F5F5F5F5F5F5F5F5F5F5F5F5F5F5F5F5F5F5F5F5F5F5F5F5F5F5F5F5F5F5F5F5F5F5F5F5F5F5F5F5F5F5F5F5F5F5F5F5F5F5F5F5F5F5F5F5F5F5F5F5F5F5F5F5F5F5F5F5F5F5F5F5F5F5F5F5F5F5F5F5F5F5F5F5F5F5F5F5F5F5F5F5F5F5F5F5F5F5F5F5
310
F5F5F5E2F5F5F5F5F5F5F5F5F5F5F5E2E2E2F5F5F5F5F5F5F5F5F5F5F5E2F5F5F5F5F5F5F5F5F5F5F5F5F5F5F5F5F5F5F5F5F5F5F5F5F5F5F5F5F5F5F5F5F5F5F5F5F5F5F5F5F5F5F5F5F5F5F5F5F5F5F5F5F5F5F5F5F5F5F5F5F5F5F5F5F5F5F5F5F5F5F5F5F5F5F5F5F5F5F5F5F5F5F5F5F5F5F5F5F5F5F5F5F5F5F5F5F5
310
F5F5F5F5F5F5F5F5F5F5F5F5F5F5F5F5F5F5F5F5F5F5F5F5F5F5F5F5F5F5F5F5F5F5F5F5F5F5F5F5F5F5F5F5F5F5F5F5F5F5F5F5F5F5F5F5E2F5F5F5F5F5F5F5F5F5F5F5E2E2E2F5F5F5F5F5F5F5F5F5F5F5E2F5F5F5F5F5F5F5F5F5F5F5F5F5F5F5F5F5F5F5F5F5F5F5F5F5F5F5F5F5F5F5F5F5F5F5F5F5F5F5F5F5F5F5F5
310
F5F5F5F5F5F5F5F5F5F5F5F5F5F5F5F5F5F5F5F5F5F5F5F5F5F5F5F5F5F5F5F5F5F5F5F5F5F5F5F5F5F5F5F5F5F5F5F5F5F5F5F5F5F5F5F5F5F5F5F5F5F5F5F5F5F5F5F5F5F5F5F5F5F5F5F5F5F5F5F5F5F5F5F5F5F5F5F5F5F5F5F5F5F5F5F5F5F5F5F5F5F5F5F5F5F5F5F5F5E2F5F5F5F5F5F5F5F5F5F5F5E2E2E2F5F5F5
310
F5F5F5F5F5F5F5F5E2F5F5F5F5F5F5F5F5F5F5F5F5F5F5F5F5F5F5F5F5F5F5F5F5F5F5F5F5F5F5F5F5F5F5F5F5F5F5F5F5F5F5F5F5F5F5F5F5F5F5F5F5F5F5F5F5F5F5F5F5F5F5F5F5F5F5F5F5F5F5F5F5F5F5F5F5F5F5F5F5F5F5F5F5F5F5F5F5F5F5F5F5F5F5F5F5F5F5F5F5F5F5F5F5F5F5F5F5F5F5F5F5F5F5F5F5F5F5
310
F5F5F5F5F5F5F5F5F5F5F5F5F5F5F5F5F5F5F5F5F5F5F5F5F5F5F5F5F5F5F5F5F5F5F5E2F5F5F5F5F5F5F5F5F5F5F5E2E2E2F5F5F5F5F5F5F5F5F5F5F5E2F5F5F5F5F5F5F5F5F5F5F5F5F5F5F5F5F5F5F5F5F5F5F5F5F5F5F5F5F5F5F5F5F5F5F5F5F5F5F5F5F5F5F5F5F5F5F5F5F5F5F5F5F5F5F5F5F5F5F5F5F5F5F5F5F5
310
F5F5F5F5F5F5F5F5F5F5F5F5F5F5F5F5F5F5F5F5F5F5F5F5F5F5F5F5F5F5F5F5F5F5F5F5F5F5F5F5F5F5F5F5F5F5F5F5F5F5F5F5F5F5F5F5F5F5F5F5F5F5F5F5F5F5F5F5F5F5F5F5F5F5F5F5F5F5F5F5F5F5F5F5F5F5F5F5E2F5F5F5F5F5F5F5F5F5F5F5E2E2E2F5F5F5F5F5F5F5F5F5F5F5F5F5F5F5F5F5F5F5F5F5F5F5F5
310
F5F5F5F5F5F5F5F5F5F5F5F5F5F5F5F5F5F5F5F5F5F5F5F5F5F5F5F5F5F5F5F5F5F5F5F5F5F5F5F5F5F5F5F5F5F5F5F5F5F5F5F5F5F5F5F5F5F5F5F5F5F5F5F5F5F5F5F5F5F5F5F5F5F5F5F5F5F5F5F5F5F5F5F5F5F5F5F5F5F5F5F5F5F5F5F5F5F5F5F5F5F5F5F5F5F5F5F5F5F5F5F5F5F5F5F5F5F5F5F5F5F5F5F5F5F5F5
310
F5F5F5F5F5F5F5F5F5F5F5F5F5F5F5F5F5F5F5F5F5F5F5F5F5F5E2E2E2F5F5F5F5F5F5F5F5F5F5F5F5F5F5F5F5F5F5F5F5F5F5F5F5F5F5F5F5F5F5F5F5F5F5F5F5F5F5F5F5F5F5F5F5F5F5F5F5F5F5F5F5F5F5F5F5F5F5F5F5F5F5F5F5F5F5F5F5F5F5F5F5F5F5F5F5F5F5F5F5F5F5F5F5F5F5F5F5F5F5F5F5F5F5F5F5F5F5
310
F5F5F5F5F5F5F5F5F5F5F5F5F5F5F5F5F5F5F5F5F5F5F5F5F5F5F5F5F5F5F5F5F5F5F5F5F5F5F5F5F5F5F5F5F5F5F5F5F5F5F5F5F5F5F5F5F5F5F5F5F5F5F5F5F5F5F5F5F5F5F5F5F5F5F5F5F5F5F5E2E2E2F5F5F5F5F5F5F5F5F5F5F5F5F5F5F5F5F5F5F5F5F5F5F5F5F5F5F5F5F5F5F5F5F5F5F5F5F5F5F5F5F5F5F5F5F5
310
F5F5F5F5F5F5F5F5F5F5F5F5F5F5F5F5F5F5F5F5F5F5F5F5F5F5F5F5F5F5F5F5F5F5F5F5F5F5F5F5F5F5F5F5F5F5F5F5F5F5F5F5F5F5F5F5F5F5F5F5F5F5F5F5F5F5F5F5F5F5F5F5F5F5F5F5F5F5F5F5F5F5F5F5F5F5F5F5F5F5F5F5F5F5F5F5F5F5F5F5F5F5F5F5F5F5F5F5F5F5F5F5F5F5F5F5F5F5F5F5F5F5F5F5F5F5F5
310
F5F5F5F5F5E2E2E2F5F5F5F5F5F5F5F5F5F5F5F5F5F5F5F5F5F5F5F5F5F5F5F5F5F5E2E2E2E2E2E2E2E2E2E2E2E2E2E2E2E2E2E2E2E2E2E2E2E2E2E2E2E2E2E2E2E2E2E2E2E2E2E2E2E2E2E2E2E2E2E2E2E2E2E2E2E2E2E2E2E2E2E2E2E2E2E2E2E2E2E2E2E2E2E2E2E2E2E2E2E2E2E2E2E2E2E2E2E2E2E2E2E2E2E2E2E2E2
310
E2E2E2E2E2E2E2E2E2E2E2E2E2E2E2E2E2E2E2E2E2E2E2E2E2E2E2E2E2E2E2E2F5F5F5F5F5F5F5F5F5F5F5F5F5F5F5F5F5F5F5F5F5F5F5F5F5F5E2E2E2F5F5F5F5F5F5F5F5F5F5F5F5F5F5F5F5F5F5F5F5F5F5F5F5F5F5E2F5F5F5F5F5F5F5F5F5F5F5F5F5F5F5F5F5F5F5F5F5F5F5F5F5F5F5F5F5F5F5F5F5F5F5F5F5F5F5
310
F5F5F5F5F5F5F5F5F5F5F5F5F5F5F5F5F5F5F5F5F5F5F5F5F5F5F5F5F5F5F5F5F5F5F5F5F5F5F5F5F5F5F5F5F5F5F5F5F5F5F5F5F5F5F5F5F5F5F5F5F5F5F5F5F5F5F5F5F5F5F5F5F5F5F5F5F5F5F5F5F5F5F5F5E2F5F5F5F5F5F5F5F5F5F5F5F5F5F5F5F5F5F5F5F5F5F5F5F5F5F5E2E2E2F5F5F5F5F5F5F5F5F5F5F5F5F5
310
F5F5F5F5F5F5F5F5F5F5F5F5F5E2F5F5F5F5F5F5F5F5F5F5F5F5F5F5F5F5F5F5F5F5F5F5F5F5E2E2E2E2F5F5F5F5F5F5F5F5F5F5F5F5E2E2E2F5F5F5F5F5F5F5F5F5F5F5E2E2E2F5F5F5F5F5F5F5F5F5F5F5F5F5F5F5F5F5F5F5F5F5F5F5F5F5F5F5F5F5F5F5F5F5F5F5F5F5F5F5F5F5F5F5F5F5F5F5F5F5F5F5F5F5F5F5F5
310
F5F5F5F5F5F5F5F5F5F5E2F5F5F5F5F5F5F5F5F5F5F5F5F5F5F5F5F5F5F5F5F5F5F5F5F5F5E2E2E2F5F5F5F5F5F5F5F5F5F5F5F5F5F5F5F5F5F5F5F5F5F5F5F5F5F5E2F5F5F5F5F5F5F5F5F5F5F5F5F5F5F5F5F5F5F5F5F5F5F5F5F5F5F5F5F5F5F5F5F5F5F5F5F5F5F5F5F5F5F5F5F5F5F5F5F5F5F5F5F5F5F5F5F5F5F5F5
310
F5F5F5F5F5F5F5F5F5F5F5F5F5F5F5F5F5F5F5F5F5F5E2E2E2E2E2E2E2E2E2E2F5F5F5F5F5F5F5F5F5F5F5F5F5F5F5F5F5F5F5F5F5F5F5F5F5F5F5F5F5F5F5E2F5F5F5F5F5F5F5F5F5F5F5F5F5F5F5F5F5F5F5F5F5F5F5F5F5F5E2E2E2F5F5F5F5F5F5F5F5F5F5F5F5F5F5F5F5F5F5F5F5F5F5F5F5F5F5E2F5F5F5F5F5F5F5
310
F5F5F5F5F5F5F5F5F5F5F5F5F5F5F5F5E2E2E2E2E2E2F5F5F5F5F5F5F5F5F5F5E2E2E2E2E2F5F5F5F5F5F5F5F5F5E2E2E2E2F5F5F5F5F5F5F5F5F5F5F5F5F5F5F5F5F5F5F5F5F5F5F5F5F5E2E2E2E2E2E2E2E2E2E2F5F5F5F5F5F5F5F5F5F5F5F5F5F5F5F5F5F5F5F5F5F5F5F5F5F5F5F5F5F5F5E2F5F5F5F5F5F5F5F5F5F5
310
F5F5F5F5F5F5F5F5F5F5F5F5F5F5F5F5E2E2E2F5F5F5F5F5F5F5F5F5F5F5E2F5F5F5F5F5F5F5F5F5F5F5F5F5F5E2F5F5F5F5F5F5F5F5F5F5F5F5F5F5F5F5F5F5F5F5F5F5F5E2E2E2F5F5E2F5F5F5F5F5F5F5F5F5F5E2E2F5F5E2F5F5F5F5F5F5F5F5F5E2E2F5E2F5F5F5F5F5F5F5F5F5F5F5F5F5F5F5F5F5F5F5F5F5F5F5F5
310
F5E2E2E2F5F5F5F5F5E2E2F5F5F5F5F5F5F5F5F5F5F5F5F5F5F5F5F5F5F5F5F5F5F5F5F5F5F5F5F5F5F5E2F5F5F5F5F5F5F5F5F5F5F5F5F5F5E2F5F5F5F5F5F5F5F5F5F5F5E2E2E2F5F5F5F5F5F5F5F5F5F5F5E2F5F5F5F5F5F5F5F5F5F5F5F5F5F5E2F5F5F5F5F5F5F5F5F5F5F5F5F5F5F5F5F5F5F5F5F5F5F5E2F5E2E2F5
310
E2F5F5F5F5F5F5F5F5F5E2F5E2E2F5E2F5F5F5F5F5F5F5F5F5E2E2F5E2F5F5F5F5F5F5F5F5F5F5F5F5F5F5F5F5F5F5F5F5F5F5F5F5F5E2F5E2F5F5F5F5F5E2E2F5F5F5F5F5F5F5F5F5F5F5F5F5F5F5F5F5F5F5F5F5F5F5F5F5F5F5F5F5F5F5E2F5F5F5F5F5F5F5F5F5F5F5F5F5F5E2F5F5F5F5F5F5F5F5F5F5F5E2E2E2F5F5
310
F5F5F5F5F5F5F5F5F5E2F5F5F5F5F5F5F5F5F5F5F5F5F5F5E2F5F5F5F5F5F5F5F5F5F5F5F5F5F5F5F5F5F5F5F5F5F5F5E2F5F5E2F5E2F5F5F5F5F5F5F5F5F5F5E2F5E2E2E2F5F5F5F5F5F5F5F5F5E2E2E2E2F5F5F5F5F5F5F5F5F5F5F5F5F5F5F5F5F5F5F5F5F5F5F5F5F5E2F5E2F5F5F5F5F5E2E2F5F5F5F5F5F5F5F5F5F5
310
F5F5F5F5F5F5F5F5F5F5F5F5F5F5F5F5F5F5F5F5F5E2F5F5F5F5F5F5F5F5F5F5F5F5F5F5E2F5F5F5F5F5F5F5F5F5F5F5E2E2E2F5F5F5F5F5F5F5F5F5F5F5E2F5F5F5F5F5F5F5F5F5F5F5F5F5F5E2F5F5F5F5F5F5F5F5F5F5F5F5F5F5F5F5F5F5F5F5F5F5F5E2E2E2E2E2E2F5F5F5F5F5F5F5F5F5F5E2F5F5F5E2F5F5F5F5F5
310
F5F5F5F5E2F5E2E2F5F5F5F5F5F5F5F5F5F5F5F5F5F5F5F5F5F5F5F5F5F5F5F5F5E2F5E2F5E2E2E2F5E2E2F5F5F5F5F5F5F5F5F5F5F5F5F5F5F5F5F5F5F5F5F5F5F5F5F5F5F5F5F5F5F5E2F5F5F5F5F5F5F5F5F5F5F5F5F5F5E2F5F5F5F5F5F5F5F5F5F5F5E2E2E2F5F5F5F5F5F5F5F5F5F5F5E2F5F5F5F5F5F5F5F5F5F5F5
310
F5F5F5E2F5F5F5F5F5F5F5F5F5F5F5F5F5F5F5F5F5F5F5F5F5F5F5F5F5F5F5F5F5F5F5F5F5F5F5F5F5F5F5E2E2E2E2E2F5F5F5F5F5F5F5F5F5E2E2E2E2F5F5F5F5F5F5F5F5F5F5F5F5F5F5F5F5F5F5F5F5F5F5F5E2E2E2E2E2F5E2E2E2F5E2E2E2F5F5F5F5F5F5F5F5F5F5F5F5F5F5F5F5F5F5F5F5F5F5F5F5F5F5F5F5F5F5
310
E2F5F5F5F5F5F5F5F5F5F5F5F5F5F5E2F5F5F5F5F5F5F5F5F5F5F5E2E2E2F5F5F5F5F5F5F5F5F5F5F5E2F5F5F5F5F5F5F5F5F5F5F5F5F5F5E2F5F5F5F5F5F5F5F5F5F5F5F5F5F5F5F5F5F5F5F5F5F5F5F5F5F5F5F5F5F5F5F5F5F5F5F5F5F5F5F5F5F5F5F5F5F5F5F5F5F5F5F5F5F5F5F5F5F5F5F5F5F5F5F5F5F5F5F5F5F5
310
F5F5F5F5F5F5F5F5E2E2E2E2F5E2E2E2E2E2E2E2E2E2E2E2E2E2F5F5F5F5F5F5F5F5F5F5F5F5F5F5F5F5F5F5F5F5F5F5F5F5F5F5F5E2F5F5F5F5F5F5F5F5F5F5F5F5F5F5E2F5F5F5F5F5F5F5F5F5F5F5E2E2E2F5F5F5F5F5F5F5F5F5F5F5E2F5F5F5F5F5F5F5F5F5F5F5F5F5F5E2F5F5F5F5F5F5F5F5F5F5F5F5F5F5F5F5F5
310
F5F5F5F5F5F5F5F5F5F5F5F5F5F5F5F5F5F5F5F5F5F5F5F5F5F5F5F5F5F5F5F5F5F5F5F5F5F5F5F5F5F5F5F5F5F5F5F5F5F5F5F5F5F5F5F5F5F5F5F5F5F5F5E2E2E2E2E2E2E2E2E2E2E2E2F5F5E2E2F5F5F5F5F5F5F5F5F5F5F5F5F5F5F5F5F5F5F5F5F5F5F5F5F5F5F5E2F5F5F5F5F5F5F5F5F5F5F5F5F5F5E2F5F5F5F5F5
310
F5F5F5F5F5F5E2E2E2F5F5F5F5F5F5F5F5F5F5F5E2F5F5F5F5F5F5F5F5F5F5F5F5F5F5E2F5F5F5F5F5F5F5F5F5F5F5F5F5F5F5F5F5F5F5F5F5F5F5F5F5F5F5F5F5F5F5F5F5F5F5F5F5F5F5F5F5F5F5F5F5F5F5F5F5F5F5F5F5F5F5F5F5F5F5F5F5F5F5F5F5F5F5F5F5F5F5F5F5F5F5F5F5F5F5F5E2E2E2E2F5F5F5E2E2F5F5
310
E2F5F5F5F5F5F5F5F5F5F5F5F5F5F5F5F5F5F5F5F5F5F5F5F5F5F5F5F5F5F5F5E2F5F5F5F5F5F5F5F5F5F5F5F5F5F5E2F5F5F5F5F5F5F5F5F5F5F5E2E2E2F5F5F5F5F5F5F5F5F5F5F5E2F5F5F5F5F5F5F5F5F5F5F5F5F5F5E2F5F5F5F5F5F5F5F5F5F5F5F5F5F5F5F5F5F5F5F5F5F5F5F5E2E2E2E2F5F5F5F5F5F5F5F5F5F5
310
F5F5E2E2E2F5F5F5F5F5F5F5F5F5F5F5E2E2E2F5F5F5F5F5F5F5F5F5F5F5F5F5F5F5F5F5F5F5F5F5F5F5E2E2E2F5E2E2E2E2E2E2E2E2F5F5F5F5F5F5F5F5F5F5F5F5F5F5F5F5F5F5F5F5F5F5F5F5F5F5F5F5F5F5F5E2F5F5F5F5F5F5F5F5F5F5F5F5F5F5E2F5F5F5F5F5F5F5F5F5F5F5E2E2E2F5F5F5F5F5F5F5F5F5F5F5E2
310
F5F5F5F5F5F5F5F5F5F5F5F5F5F5E2F5F5F5F5F5F5F5F5F5F5F5F5F5F5F5F5F5F5F5F5F5F5F5F5F5F5F5F5F5F5F5F5F5F5F5F5F5F5F5F5E2E2E2F5F5F5F5F5F5F5F5F5F5F5E2E2E2F5F5F5F5F5F5F5F5F5F5F5F5F5F5F5F5F5F5F5F5F5F5F5E2E2E2F5E2E2E2E2E2E2E2E2F5F5F5F5F5F5F5F5F5F5F5F5F5F5F5F5F5F5F5F5
310
F5F5F5F5F5F5F5F5F5F5F5E2F5F5F5F5F5F5F5F5F5F5F5F5F5F5E2F5F5F5F5F5F5F5F5F5F5F5E2E2E2F5F5F5F5F5F5F5F5F5F5F5E2F5F5F5F5F5F5F5F5F5F5F5F5F5F5E2F5F5F5F5F5F5F5F5F5F5F5F5F5F5F5F5F5F5F5F5F5F5F5E2E2E2E2E2E2F5F5F5F5F5F5F5F5F5F5E2E2E2E2E2F5F5F5F5F5F5F5F5F5E2E2E2E2F5F5
310
F5F5F5F5F5F5F5F5F5F5F5F5F5F5F5F5F5F5F5F5F5E2E2E2E2E2E2E2E2E2E2E2E2F5F5F5F5F5F5F5F5F5F5F5F5F5F5F5F5F5F5F5F5F5F5F5F5F5F5F5F5F5F5F5E2F5F5F5F5F5F5F5F5F5F5F5F5F5F5E2F5F5F5F5F5F5F5F5F5F5F5E2E2E2F5F5F5F5F5F5F5F5F5F5F5E2F5F5F5F5F5F5F5F5F5F5F5F5F5F5E2F5F5F5F5F5F5
310
F5F5F5F5F5F5F5F5F5F5F5F5F5F5F5F5F5E2F5F5F5F5E2F5F5F5F5F5F5F5F5F5E2E2F5F5F5E2F5F5F5F5F5F5F5F5E2E2F5F5E2F5F5F5F5F5F5F5F5F5F5F5F5F5F5F5F5F5F5F5F5F5F5F5E2E2E2E2E2E2E2E2E2E2E2E2F5F5F5F5F5F5F5F5F5F5F5F5F5F5F5F5F5F5F5F5F5F5F5F5F5F5F5F5F5F5F5E2F5F5F5F5F5F5F5F5F5
310
F5F5F5F5F5E2F5F5F5F5F5F5F5F5F5F5F5E2E2E2F5F5F5F5F5F5F5F5F5F5F5E2F5F5F5F5F5F5F5F5F5F5F5F5F5F5E2F5F5F5F5F5F5F5F5F5F5F5F5F5F5F5F5F5F5F5F5F5F5F5E2F5E2E2F5E2F5F5F5F5F5F5F5F5F5E2E2E2E2F5E2F5F5F5F5F5F5F5F5E2E2F5F5E2F5F5F5F5F5F5F5F5F5F5F5F5F5F5F5F5F5F5F5F5F5F5F5
310
F5F5E2E2E2E2E2E2E2E2E2E2F5F5F5F5F5F5F5F5F5F5F5F5F5F5F5F5F5F5F5F5F5F5F5F5F5F5F5F5F5F5F5E2F5F5F5F5F5F5F5F5F5F5F5F5F5F5E2F5F5F5F5F5F5F5F5F5F5F5E2E2E2F5F5F5F5F5F5F5F5F5F5F5E2F5F5F5F5F5F5F5F5F5F5F5F5F5F5E2F5F5F5F5F5F5F5F5F5F5F5F5F5F5F5F5F5F5F5F5F5F5F5E2F5E2E2
310
F5E2F5F5F5F5F5F5F5F5F5E2E2E2E2F5E2F5F5F5F5F5F5F5F5E2E2E2E2E2F5F5F5F5F5F5F5F5F5F5F5F5F5F5F5F5F5F5F5F5F5F5F5F5F5E2E2E2E2E2E2E2E2E2E2F5F5F5F5F5F5F5F5F5F5F5F5F5F5F5F5F5F5F5F5F5F5F5F5F5F5F5F5F5F5F5E2F5F5F5F5F5F5F5F5F5F5F5F5F5F5E2F5F5F5F5F5F5F5F5F5F5F5E2E2E2F5
310
F5F5F5F5F5F5F5F5F5F5E2F5F5F5F5F5F5F5F5F5F5F5F5F5F5E2F5F5F5F5F5F5F5F5F5F5F5F5F5F5F5F5F5F5F5F5F5F5F5E2E2F5F5F5E2F5F5F5F5F5F5F5F5F5E2E2F5F5F5E2F5F5F5F5F5F5F5F5E2E2E2E2E2F5F5F5F5F5F5F5F5F5F5F5F5F5F5F5F5F5F5F5F5F5F5F5F5F5F5F5F5F5F5F5F5F5F5F5F5F5F5F5F5F5F5F5F5
310
F5F5F5F5F5F5F5F5F5F5F5F5F5F5F5F5F5F5F5F5F5F5E2F5F5F5F5F5F5F5F5F5F5F5F5F5F5E2F5F5F5F5F5F5F5F5F5F5F5E2E2E2F5F5F5F5F5F5F5F5F5F5F5F5F5F5F5F5F5F5F5F5F5F5F5F5F5F5E2F5F5F5F5F5F5F5F5F5F5F5F5F5F5F5F5F5F5F5F5F5F5F5F5E2E2E2E2E2F5F5F5F5F5F5F5F5F5E2E2E2E2E2E2F5F5F5F5
310
F5F5F5F5F5E2E2E2E2F5F5F5F5F5F5F5F5F5F5F5F5F5F5F5F5F5F5F5F5F5F5F5F5F5F5F5F5F5F5F5F5F5F5F5F5F5F5F5F5F5F5F5F5F5F5F5F5F5F5F5F5F5F5F5F5F5F5F5F5F5F5F5F5F5F5E2F5F5F5F5F5F5F5F5F5F5F5F5F5F5F5F5F5F5F5F5F5F5F5F5F5F5E2E2E2F5F5F5F5F5F5F5F5F5F5F5F5F5F5F5F5F5F5F5F5F5F5
310
F5F5F5F5E2F5F5F5F5F5F5F5F5F5F5F5F5F5F5F5F5F5F5E2E2E2E2E2E2E2E2E2E2E2E2E2E2E2E2E2E2E2E2E2E2E2E2E2E2E2E2E2E2E2E2E2E2E2E2E2E2E2E2E2E2E2E2E2E2E2E2E2E2E2E2E2E2E2E2E2E2E2E2E2E2E2E2E2E2E2E2E2E2E2E2E2E2E2E2E2E2E2E2E2E2E2E2E2E2E2F5F5F5F5F5F5F5F5F5F5F5F5F5F5F5F5F5
310
F5E2F5F5F5F5F5F5F5F5F5F5F5F5F5F5F5F5F5F5F5F5F5F5F5F5F5F5E2E2E2F5F5F5F5F5F5F5F5F5F5F5F5F5F5F5F5F5F5F5F5F5F5F5F5F5F5E2F5F5F5F5F5F5F5F5F5F5F5F5F5F5F5F5F5F5F5F5F5F5F5F5F5F5F5F5F5F5F5F5F5F5F5F5F5F5F5F5F5F5F5F5F5F5F5F5F5F5F5F5F5F5F5F5F5F5F5F5F5F5F5F5F5F5F5F5F5
310
F5F5F5F5F5F5F5F5F5F5F5F5F5F5F5F5F5F5F5F5F5F5F5F5F5F5F5F5F5F5F5F5F5F5F5F5F5F5F5F5F5F5F5F5F5F5F5F5F5F5F5F5F5F5E2F5F5F5F5F5F5F5F5F5F5F5F5F5F5F5F5F5F5F5F5F5F5F5F5F5F5E2E2E2F5F5F5F5F5F5F5F5F5F5F5F5F5F5F5F5F5F5F5F5F5F5F5F5F5F5E2F5F5F5F5F5F5F5F5F5F5F5F5F5F5F5F5
310
F5F5F5F5F5F5F5F5F5F5E2E2E2F5F5F5F5F5F5F5F5F5F5F5E2E2E2F5F5F5F5F5F5F5F5F5F5F5E2E2E2F5F5F5F5F5F5F5F5F5F5F5E2E2E2E2F5F5F5F5F5F5F5F5F5F5F5F5F5F5F5F5F5F5F5F5F5F5F5F5F5F5F5F5F5F5F5F5F5F5F5F5F5F5F5F5F5F5F5F5F5F5F5F5F5F5F5E2F5F5F5F5F5F5F5F5F5F5F5F5F5F5F5F5F5F5F5
310
F5F5F5F5F5F5F5E2E2E2F5F5F5F5F5F5F5F5F5F5F5F5F5F5F5F5F5F5F5F5F5F5F5F5F5F5E2F5F5F5F5F5F5F5F5F5F5F5F5F5F5F5F5F5F5F5F5F5F5F5F5F5F5E2E2E2F5F5F5F5F5F5F5F5F5F5F5E2E2E2F5F5F5F5F5F5F5F5F5F5F5E2E2E2F5F5F5F5F5F5F5F5F5F5F5E2E2E2E2F5F5F5F5F5F5F5F5F5F5F5F5F5F5F5F5F5F5
310
F5F5F5F5F5F5F5F5F5F5F5F5F5F5F5F5F5F5F5F5F5F5F5F5F5F5F5F5F5F5F5F5F5E2F5F5F5F5F5F5F5F5F5F5F5F5F5F5F5F5F5F5F5F5F5F5F5F5F5F5E2E2E2F5F5F5F5F5F5F5F5F5F5F5F5F5F5F5F5F5F5F5F5F5F5F5F5F5F5E2F5F5F5F5F5F5F5F5F5F5F5F5F5F5F5F5F5F5F5F5F5F5F5F5E2E2E2E2E2E2E2F5F5F5F5F5F5
310
F5E2E2E2E2E2E2E2F5F5F5F5F5F5E2E2E2E2E2E2E2E2E2F5F5F5F5F5E2E2E2E2E2E2E2E2E2E2F5F5F5F5F5F5F5F5F5F5F5F5F5F5F5F5F5F5F5F5F5F5F5F5F5F5F5F5F5F5F5F5F5F5F5F5F5F5F5F5F5F5F5F5F5F5F5F5E2F5F5F5F5F5F5F5F5F5F5F5F5F5F5F5F5F5F5F5F5F5F5F5F5F5F5E2E2E2F5F5F5F5F5F5F5F5F5F5F5
310
F5F5F5F5F5F5F5F5F5F5F5F5F5F5F5E2F5F5F5F5F5F5F5F5F5F5F5F5F5F5F5F5F5F5F5F5F5F5F5F5E2F5F5F5F5F5E2F5F5F5F5F5F5E2E2E2F5F5F5F5E2F5F5F5F5F5F5E2E2F5F5F5F5F5F5E2F5F5F5F5F5E2E2E2F5F5F5F5F5F5E2F5F5F5F5F5F5F5F5F5F5F5F5F5F5F5F5F5F5F5F5F5F5F5F5F5F5F5F5F5F5F5F5F5F5F5E2
310
E2E2F5F5F5F5F5F5F5F5E2E2E2F5F5F5F5F5F5F5F5F5F5F5F5F5F5F5F5F5F5F5F5F5F5F5F5F5F5E2E2E2F5F5F5F5F5F5F5F5F5F5F5F5F5F5F5F5F5F5F5F5F5F5F5F5F5F5E2F5F5F5F5F5F5F5F5F5F5F5F5F5F5F5F5F5F5F5F5F5F5F5F5E2F5F5E2F5F5E2F5F5F5F5F5F5E2E2E2F5F5F5F5E2F5F5F5F5F5F5E2E2E2E2F5F5F5
310
F5E2F5F5F5F5F5E2E2E2E2F5F5F5F5F5E2F5F5F5E2E2E2E2E2E2E2F5F5F5F5E2E2E2E2E2E2E2F5F5F5F5F5F5F5F5F5F5F5F5F5F5E2E2E2F5F5F5F5F5F5F5F5E2E2E2F5F5F5F5F5F5F5F5F5F5F5F5F5F5F5F5F5F5F5F5F5F5F5F5F5F5E2E2E2F5F5F5F5F5F5F5F5F5F5F5E2F5F5F5F5F5F5F5F5F5F5F5F5F5F5E2F5F5F5F5F5
310
F5F5F5F5F5F5F5F5F5F5F5F5F5F5F5F5F5F5F5E2F5F5E2E2E2E2F5F5F5F5F5F5E2E2E2F5E2F5F5E2F5F5F5F5F5F5E2F5E2E2F5F5F5F5E2F5F5F5F5F5E2F5F5E2F5F5F5F5F5E2F5F5F5E2F5E2E2F5F5E2F5F5F5F5E2E2E2E2F5F5E2E2F5F5F5F5F5F5F5F5F5F5F5F5F5F5F5F5F5F5F5F5F5F5F5F5F5F5E2F5F5F5F5F5F5F5F5
310
F5F5F5F5F5F5E2F5F5F5F5F5F5F5F5F5F5F5E2E2E2F5F5F5F5F5F5F5F5F5F5F5E2F5F5F5F5F5F5F5F5F5F5F5F5F5F5E2F5F5F5F5F5F5F5F5F5F5F5F5F5F5F5F5F5F5F5F5F5F5F5F5E2F5F5F5E2E2E2F5F5F5F5F5F5E2E2E2E2E2F5F5E2F5F5F5F5F5F5E2F5F5F5F5F5F5F5E2F5F5F5F5F5E2F5F5F5F5F5F5F5F5E2F5F5F5E2
310
F5E2E2E2E2E2F5F5F5F5E2E2E2E2E2F5F5E2F5F5F5F5F5F5F5F5F5F5F5F5F5F5F5F5F5F5F5F5F5F5F5F5F5F5E2F5F5F5F5F5F5F5F5F5F5F5F5F5F5E2F5F5F5F5F5F5F5F5F5F5F5E2E2E2F5F5F5F5F5F5F5F5F5F5F5E2F5F5F5F5F5F5F5F5F5F5F5F5F5F5E2F5F5F5F5F5F5F5F5F5F5F5F5F5F5F5F5F5F5F5F5F5F5F5F5E2E2
310
E2E2E2E2E2F5F5F5F5F5F5F5E2E2E2F5F5F5E2F5F5F5F5F5F5E2E2F5F5F5F5F5E2E2F5F5F5F5F5E2F5F5F5F5F5F5F5F5E2F5F5F5E2F5E2F5F5E2E2F5F5F5F5E2E2E2F5E2E2F5E2F5F5F5F5F5F5F5F5F5F5F5F5F5F5F5F5F5F5F5F5F5F5F5F5F5F5E2F5F5F5F5F5F5F5F5F5F5F5F5F5F5E2F5F5F5F5F5F5F5F5F5F5F5E2E2E2
310
F5F5F5F5F5F5F5F5F5F5F5E2F5F5F5F5F5F5F5F5F5F5F5F5F5F5E2F5F5F5F5F5F5F5F5F5F5F5F5F5F5F5F5F5F5F5F5F5F5F5F5F5F5F5F5F5F5F5F5F5F5F5F5F5F5E2E2F5F5E2E2E2F5F5F5F5F5F5F5E2E2E2E2E2E2E2F5F5F5F5F5F5F5E2E2E2E2E2E2E2E2F5F5F5F5E2F5E2F5F5F5E2F5F5F5F5E2E2E2F5E2E2F5E2F5F5F5
310
F5F5F5F5F5F5F5F5F5F5F5F5F5F5F5F5F5F5F5F5F5F5F5E2F5F5F5F5F5F5F5F5F5F5F5F5F5F5E2F5F5F5F5F5F5F5F5F5F5F5E2E2E2F5F5F5F5F5F5F5F5F5F5F5E2F5F5F5F5F5F5F5F5F5F5F5F5F5F5E2F5F5F5F5F5F5F5F5F5F5F5F5F5F5F5F5F5F5F5F5F5F5F5F5F5F5F5F5F5F5F5F5F5F5F5F5F5F5F5F5E2E2E2F5F5F5F5
310
F5F5F5F5F5F5F5F5F5F5F5F5F5F5F5F5F5F5F5F5F5F5F5F5F5F5F5F5F5F5F5E2F5E2E2E2E2E2F5F5F5F5E2E2E2E2E2E2E2E2F5F5F5F5F5F5F5F5F5F5F5F5F5F5F5F5F5F5F5F5F5F5F5F5F5F5E2F5F5F5F5F5F5F5F5F5F5F5F5F5F5E2F5F5F5F5F5F5F5F5F5F5F5E2E2E2F5F5F5F5F5F5F5F5F5F5F5E2F5F5F5F5F5F5F5F5F5
310
F5F5F5F5F5E2F5F5F5F5F5F5F5F5F5F5F5F5F5F5F5F5F5F5F5F5F5F5F5F5F5F5F5F5F5F5F5F5F5F5F5F5F5F5F5F5F5F5F5F5F5F5F5F5F5F5F5F5F5F5F5F5F5F5F5F5F5F5F5F5F5F5F5F5F5F5F5F5F5F5F5F5F5F5E2E2E2E2E2E2E2F5F5F5F5F5F5E2E2E2E2E2E2F5F5F5F5F5F5F5F5F5F5F5F5F5F5F5F5F5F5F5F5F5F5F5F5
310
F5F5E2F5F5F5F5F5F5F5F5F5F5F5F5F5F5E2F5F5F5F5F5F5F5F5F5F5F5E2E2E2F5F5F5F5F5F5F5F5F5F5F5E2F5F5F5F5F5F5F5F5F5F5F5F5F5F5E2F5F5F5F5F5F5F5F5F5F5F5F5F5F5F5F5F5F5F5F5F5F5F5F5F5F5E2E2E2F5F5F5F5F5F5F5F5F5F5F5E2E2E2F5F5F5F5F5F5F5F5F5F5F5F5F5F5F5F5F5F5F5F5F5F5F5F5F5
310
F5F5F5F5F5F5F5F5F5F5F5F5E2E2E2E2E2F5F5F5F5F5F5F5F5F5F5F5F5F5F5F5F5F5F5F5F5F5F5F5F5F5F5F5F5F5F5F5F5F5F5F5F5F5F5E2F5F5F5F5F5F5F5F5F5F5F5F5F5F5E2F5F5F5F5F5F5F5F5F5F5F5E2E2E2F5F5F5F5F5F5F5F5F5F5F5E2F5F5F5F5F5F5F5F5F5F5F5F5F5F5E2F5F5F5F5F5F5F5F5F5F5F5F5F5F5F5
310
F5F5F5F5F5F5F5F5F5F5F5E2E2E2F5F5F5F5F5F5F5F5F5F5F5E2E2E2F5F5F5F5F5F5F5F5F5F5F5E2E2E2F5F5F5F5F5F5F5F5F5F5F5E2E2E2E2F5F5F5F5F5F5F5F5F5F5F5F5F5F5F5F5F5E2E2E2E2E2E2E2F5F5F5F5F5F5F5F5F5F5F5F5F5F5F5F5F5F5F5F5F5F5F5F5F5F5F5E2F5F5F5F5F5F5F5F5F5F5F5F5F5F5E2F5F5F5
310
F5F5F5F5F5F5F5F5E2E2E2F5F5F5F5F5F5F5F5F5F5F5E2F5F5F5F5F5F5F5F5F5F5F5F5F5F5E2F5F5F5F5F5F5F5F5F5F5F5F5F5F5F5F5F5F5F5F5F5F5F5F5F5F5F5F5F5F5F5F5F5F5F5F5F5E2E2E2E2E2E2E2E2E2F5F5F5F5F5F5F5F5E2E2E2F5F5F5F5F5F5F5F5F5F5F5E2E2E2E2F5F5F5F5F5F5E2E2E2E2E2E2E2E2F5F5F5
310
E2E2E2E2E2E2E2E2F5F5F5F5F5F5F5F5F5F5F5F5F5E2E2E2F5F5F5F5F5F5F5F5E2E2E2F5F5F5F5F5F5F5F5F5F5F5F5F5F5E2F5F5F5F5F5F5F5F5F5F5F5E2E2E2F5F5F5F5F5F5F5F5F5F5F5E2F5F5F5F5F5F5F5F5F5F5F5F5F5F5E2F5F5F5F5F5F5F5F5F5F5F5F5F5F5F5F5F5F5F5F5F5F5E2E2E2E2E2E2E2E2E2E2F5F5F5E2
310
E2E2E2E2E2E2E2E2E2E2F5F5F5F5F5E2E2E2E2E2E2E2E2E2E2F5F5F5F5E2E2E2E2E2E2E2E2E2E2F5F5F5E2E2E2F5F5F5E2E2F5F5F5E2E2E2F5E2F5F5E2F5F5F5F5F5F5F5F5F5F5F5F5F5F5F5F5F5F5F5F5F5F5F5F5F5F5E2F5F5F5F5F5F5F5F5F5F5F5F5F5F5E2F5F5F5F5F5F5F5F5F5F5F5E2E2E2F5F5F5F5F5F5F5F5F5F5
310
F5E2F5F5F5F5F5F5F5F5F5F5F5F5F5F5E2F5F5F5F5F5F5F5F5F5F5F5F5F5F5F5F5F5F5F5F5F5F5E2E2E2E2E2E2E2E2E2E2F5F5F5E2E2E2E2F5F5F5F5F5E2E2F5F5F5F5F5E2F5F5F5F5F5F5F5E2E2F5F5F5F5E2F5F5F5F5F5F5F5F5E2F5F5F5E2E2E2F5E2F5E2E2F5F5F5E2E2E2F5E2E2E2E2F5F5F5F5F5F5F5F5F5F5F5F5F5
310
F5F5F5F5F5F5F5F5F5F5F5F5F5E2F5F5F5F5F5F5F5F5F5F5F5F5F5F5E2F5F5F5F5F5F5F5F5F5F5F5E2E2E2F5F5F5F5F5F5F5F5F5F5F5E2F5F5F5F5F5F5F5F5F5F5F5F5F5F5E2F5F5F5F5F5F5F5F5F5F5F5F5F5F5F5F5F5F5F5F5F5F5E2E2E2E2F5F5F5F5E2E2F5F5F5E2E2E2F5F5F5F5F5F5E2E2F5F5F5F5F5E2F5F5F5F5F5
310
F5E2E2E2F5F5F5F5E2F5F5F5F5F5F5F5F5E2F5F5F5E2E2E2E2E2E2E2E2F5F5F5E2E2E2E2E2E2F5E2F5F5F5F5F5F5F5F5F5F5F5F5F5F5F5F5F5F5F5F5F5F5F5F5F5F5E2F5F5F5F5F5F5F5F5F5F5F5F5F5F5E2F5F5F5F5F5F5F5F5F5F5F5E2E2E2F5F5F5F5F5F5F5F5F5F5F5E2F5F5F5F5F5F5F5F5F5F5F5F5F5F5E2F5F5F5F5
310
F5F5F5F5F5F5F5F5F5F5F5F5F5F5F5F5F5F5E2E2E2E2F5F5F5F5E2E2F5F5F5E2E2E2E2E2E2E2E2E2E2E2F5F5F5F5F5E2F5F5E2E2E2F5F5E2E2F5F5F5F5E2F5F5F5E2E2F5F5F5E2F5F5F5E2E2E2E2E2E2E2E2F5F5F5E2E2E2E2E2E2E2E2F5F5F5F5F5F5F5F5F5F5F5F5F5F5F5F5F5F5F5F5F5F5F5F5F5F5E2F5F5F5F5F5F5F5
310
F5F5F5F5F5F5F5E2F5F5F5F5F5F5F5F5F5F5F5E2E2E2F5F5F5F5F5F5F5F5F5F5F5E2F5F5F5F5F5F5F5F5F5F5F5F5F5F5E2F5F5F5F5F5F5F5F5F5F5F5F5F5F5F5F5F5F5F5F5F5F5E2E2E2E2F5F5F5F5E2E2F5F5F5E2E2E2F5F5E2E2F5F5E2E2F5F5F5F5F5E2F5F5E2E2E2F5F5E2E2F5F5F5F5E2F5F5F5E2E2F5F5F5E2F5F5F5
310
E2E2E2E2E2E2E2E2F5F5F5E2E2E2E2E2E2E2E2F5F5F5F5F5F5F5F5F5F5F5F5F5F5F5F5F5F5F5F5F5F5F5F5F5F5E2F5F5F5F5F5F5F5F5F5F5F5F5F5F5E2F5F5F5F5F5F5F5F5F5F5F5E2E2E2F5F5F5F5F5F5F5F5F5F5F5E2F5F5F5F5F5F5F5F5F5F5F5F5F5F5E2F5F5F5F5F5F5F5F5F5F5F5F5F5F5F5F5F5F5F5F5F5F5E2E2E2
310
E2E2E2E2E2E2E2F5F5F5E2E2E2E2F5E2E2E2F5E2F5F5F5F5F5F5E2E2E2E2E2E2E2E2E2E2F5F5F5F5E2E2E2E2E2E2E2E2E2E2F5F5F5E2E2E2E2E2E2E2E2F5F5F5F5F5E2E2E2E2E2E2F5F5F5F5F5F5F5F5F5F5F5F5F5F5F5F5F5F5F5F5F5F5F5F5F5F5E2F5F5F5F5F5F5F5F5F5F5F5F5F5F5E2F5F5F5F5F5F5F5F5F5F5F5E2E2
310
E2F5F5F5F5F5F5F5F5F5F5F5F5F5F5F5F5F5F5F5F5F5F5F5F5F5F5E2F5F5F5F5F5F5F5F5F5F5F5F5F5F5F5F5F5F5F5F5F5F5E2E2E2E2E2E2E2E2E2E2F5F5F5E2E2E2E2E2E2E2E2E2E2F5F5F5F5F5F5E2E2E2E2E2E2E2E2E2E2F5F5F5F5E2E2E2E2E2E2E2E2E2E2F5F5F5F5E2E2E2E2E2E2E2F5F5F5F5F5E2E2E2E2E2E2F5F5
310
F5F5F5F5F5F5F5F5F5F5F5F5F5F5F5F5F5F5F5F5F5F5F5F5E2F5F5F5F5F5F5F5F5F5F5F5F5F5F5F5F5F5F5F5F5F5F5F5F5F5F5E2E2E2F5F5F5F5F5F5F5F5F5F5F5F5F5F5F5F5F5F5F5F5F5F5F5F5F5F5E2F5F5F5F5F5F5F5F5F5F5F5F5F5F5F5F5F5F5F5F5F5F5F5E2E2E2E2E2E2E2E2E2F5F5F5E2E2E2E2E2E2E2E2E2F5F5
310
F5F5F5F5F5F5F5F5F5F5F5F5F5F5F5F5F5F5F5F5F5F5F5F5F5F5F5F5F5F5F5F5F5E2E2E2E2E2E2E2F5F5F5F5F5F5F5F5F5F5F5F5F5F5F5F5F5F5F5F5F5F5F5F5F5F5F5F5F5F5F5F5F5F5F5F5F5E2F5F5F5F5F5F5F5F5F5F5F5F5F5F5F5F5F5F5F5F5F5F5F5F5F5F5E2E2E2F5F5F5F5F5F5F5F5F5F5F5F5F5F5F5F5F5F5F5F5
310
F5F5F5F5F5F5E2F5F5F5F5F5F5F5F5F5F5F5F5F5F5F5F5F5F5E2E2E2E2E2E2E2E2E2E2E2E2E2E2E2E2E2E2E2E2E2E2E2E2E2E2E2E2E2E2E2E2E2E2E2E2E2E2E2E2E2E2E2E2E2E2E2E2E2E2E2E2E2E2E2E2E2E2E2E2E2E2E2E2E2E2E2E2E2E2E2E2E2E2E2E2E2E2E2E2E2E2E2E2E2E2E2F5F5F5F5F5F5F5F5F5F5F5F5F5F5F5
310
F5F5F5E2F5F5F5F5F5F5F5F5F5F5F5F5F5F5F5F5F5F5F5F5F5F5F5F5F5F5E2E2E2F5F5F5F5F5F5F5F5F5F5F5F5F5F5F5F5F5F5F5F5F5F5F5F5F5F5E2F5F5F5F5F5F5F5F5F5F5F5F5F5F5F5F5F5F5F5F5F5F5F5F5F5F5F5F5F5F5F5F5F5F5F5F5F5F5F5F5F5F5F5F5F5F5F5F5F5F5F5F5F5F5F5F5F5F5F5F5F5F5F5F5F5F5F5
310
F5F5F5F5F5F5F5F5F5F5F5F5F5F5F5F5F5F5F5F5F5F5F5F5F5F5F5F5F5F5F5F5F5F5F5F5F5F5F5F5F5F5F5F5F5F5F5F5F5F5F5F5F5F5F5F5E2F5F5F5F5F5F5F5F5F5F5F5F5F5F5F5F5F5F5F5F5F5F5F5F5F5F5E2E2E2F5F5F5F5F5F5F5F5F5F5F5F5F5F5F5F5F5F5F5F5F5F5F5F5F5F5E2F5F5F5F5F5F5F5F5F5F5F5F5F5F5
310
F5F5F5F5F5F5F5F5F5F5F5F5F5E2E2E2F5F5F5F5F5F5F5F5F5F5F5F5F5E2E2E2E2F5F5F5F5F5F5F5F5F5F5F5F5E2E2E2E2F5F5F5F5F5F5F5F5F5F5F5F5E2E2E2E2F5F5F5F5F5F5F5F5F5F5F5E2E2E2E2F5F5F5F5F5F5F5F5F5F5F5F5F5F5F5F5F5F5F5F5F5F5F5F5F5F5F5F5F5E2F5F5F5F5F5F5F5F5F5F5F5F5F5F5F5F5F5
310
F5F5F5F5F5F5F5F5F5E2E2E2F5F5F5F5F5F5F5F5F5F5F5F5F5F5F5F5F5F5F5F5F5F5F5F5F5F5E2F5F5F5F5F5F5F5F5F5F5F5F5F5F5F5F5F5F5F5F5F5F5E2E2E2E2E2E2E2E2E2E2E2F5F5F5F5F5E2E2E2E2E2E2E2E2E2E2E2F5F5F5F5F5E2E2E2E2E2E2E2E2E2E2E2E2E2E2F5F5E2E2E2E2E2E2E2E2E2E2E2F5F5E2E2F5F5E2
310
E2E2E2E2E2E2E2E2E2E2F5F5F5F5F5F5F5F5F5F5F5F5F5F5F5F5F5F5F5F5F5F5F5F5F5E2F5F5F5F5F5F5F5F5F5F5F5F5F5F5F5F5F5F5F5F5F5F5F5F5F5F5E2E2E2F5F5F5F5F5F5F5F5F5F5F5F5F5F5F5F5F5F5F5F5F5F5F5F5F5F5E2F5F5F5F5F5F5F5F5F5F5F5F5F5F5F5F5F5F5F5F5F5F5E2E2E2F5F5F5F5F5F5F5F5E2F5
310
F5F5F5E2E2E2F5F5F5F5F5F5F5E2E2F5F5F5F5E2F5E2E2F5F5F5F5F5F5F5E2E2F5F5F5E2E2E2F5F5F5E2F5E2F5E2E2E2E2E2E2E2E2F5F5F5E2F5F5F5E2E2E2F5F5F5F5F5F5F5F5F5F5F5F5F5F5F5F5F5F5F5F5F5F5F5F5F5E2F5F5F5F5F5F5F5F5F5F5F5F5F5F5F5F5F5F5F5F5F5F5F5F5F5F5E2E2E2F5F5F5F5F5F5F5F5F5
310
F5F5F5F5F5F5F5F5F5F5F5F5F5F5F5F5F5E2F5F5F5F5F5F5F5F5F5F5F5F5F5F5F5F5F5F5F5F5F5F5E2E2F5F5F5F5F5F5F5F5F5E2F5F5F5F5E2F5E2F5F5F5E2E2E2E2E2E2F5F5F5F5E2E2E2E2E2F5F5E2E2E2E2E2E2F5F5F5E2E2E2E2E2E2E2F5E2F5E2E2E2F5F5F5E2E2E2E2E2E2E2E2E2E2E2E2F5F5F5F5F5F5F5F5F5F5F5
310
F5F5F5F5F5F5F5F5F5F5F5F5F5F5E2F5F5F5F5F5F5F5F5F5F5F5F5F5F5F5F5F5F5F5F5F5F5F5F5F5F5E2E2E2F5F5F5F5F5F5F5F5F5F5F5F5F5F5F5F5F5F5F5F5F5F5F5F5F5F5E2F5F5F5F5F5F5F5F5F5F5F5F5F5F5F5F5F5F5F5F5F5F5E2E2F5F5F5F5F5E2E2F5F5E2F5F5F5F5E2F5E2F5F5F5F5F5F5F5F5E2F5F5F5F5E2E2
310
F5E2E2E2F5F5F5F5F5E2E2F5F5F5E2E2F5F5E2E2E2E2E2E2F5E2F5F5F5F5E2F5F5E2E2E2F5F5F5F5E2E2F5F5F5F5F5F5F5F5F5F5F5F5F5F5F5F5F5F5F5F5F5F5F5F5F5E2F5F5F5F5F5F5F5F5F5F5F5F5F5F5F5F5F5F5F5F5F5F5F5F5F5F5E2E2E2F5F5F5F5F5F5F5F5F5F5F5E2F5F5F5F5F5F5F5F5F5F5F5F5F5F5E2F5F5F5
310
F5F5F5F5F5F5F5F5F5F5F5F5F5F5F5F5F5F5F5E2E2F5F5F5F5F5E2E2E2F5E2F5F5F5F5E2F5E2F5F5F5F5F5F5F5F5E2F5F5F5F5E2E2F5E2E2E2F5E2E2E2F5E2E2F5F5F5E2E2F5F5E2E2E2E2E2E2F5E2F5F5F5F5E2F5F5E2E2E2E2E2E2F5E2E2F5F5F5F5F5F5F5F5F5F5F5F5F5F5F5F5F5F5F5F5F5F5F5F5F5E2F5F5F5F5F5F5
310
F5F5F5F5F5F5F5F5E2F5F5F5F5F5F5F5F5F5F5F5E2E2E2F5F5F5F5F5F5F5F5F5F5F5E2F5F5F5F5F5F5F5F5F5F5F5F5F5F5E2F5F5F5F5F5F5F5F5F5F5F5F5F5F5F5F5F5F5F5F5F5F5E2E2F5F5F5F5F5F5F5E2E2E2F5F5F5F5E2F5E2F5F5F5F5F5F5F5F5E2F5F5F5F5E2E2F5E2E2E2F5F5E2E2E2E2E2F5F5F5E2E2E2E2E2E2E2
310
E2E2E2E2E2F5F5F5F5E2E2E2E2E2E2F5E2E2E2E2E2F5F5F5F5F5F5F5F5F5F5F5F5F5F5F5F5F5F5F5F5F5F5F5F5F5E2F5F5F5F5F5F5F5F5F5F5F5F5F5F5E2F5F5F5F5F5F5F5F5F5F5F5E2E2E2F5F5F5F5F5F5F5F5F5F5F5E2F5F5F5F5F5F5F5F5F5F5F5F5F5F5E2F5F5F5F5F5F5F5F5F5F5F5F5F5F5F5F5F5F5F5F5F5F5E2E2
310
E2E2E2E2E2E2E2E2E2E2F5F5F5F5E2E2E2E2E2E2E2E2E2E2E2E2F5F5F5F5E2E2E2E2E2E2E2E2E2E2E2E2E2E2F5F5E2E2E2E2E2E2E2E2F5E2E2E2F5F5E2E2E2E2F5E2E2E2E2E2E2E2E2E2F5F5F5F5F5F5F5F5F5F5F5F5F5F5F5F5F5F5F5F5F5F5F5F5F5E2F5F5F5F5F5F5F5F5F5F5F5F5F5F5E2F5F5F5F5F5F5F5F5F5F5F5E2
310
E2E2F5F5F5F5F5F5F5F5F5F5F5E2F5F5F5F5F5F5F5F5F5F5F5F5F5F5E2F5F5F5F5F5F5F5F5F5F5F5F5F5F5F5F5F5F5F5F5F5F5F5E2E2E2E2E2E2E2E2E2E2E2F5F5F5F5F5F5E2E2E2E2E2E2E2E2E2E2F5F5F5F5E2E2E2E2E2E2E2F5F5F5F5E2F5F5F5F5F5E2F5F5F5E2E2E2E2E2E2E2F5E2E2E2E2E2E2E2E2E2E2F5F5F5F5F5
310
F5F5F5F5F5F5F5F5F5F5F5F5F5F5F5F5F5F5F5F5F5F5F5F5F5E2F5F5F5F5F5F5F5F5F5F5F5F5F5F5E2F5F5F5F5F5F5F5F5F5F5F5E2E2E2F5F5F5F5F5F5F5F5F5F5F5E2F5F5F5F5F5F5F5F5F5F5F5F5F5F5E2F5F5F5F5F5F5F5F5F5F5F5F5F5F5F5F5F5F5F5F5F5F5F5F5F5F5F5F5F5F5F5F5F5F5F5F5F5F5F5F5F5F5F5F5F5
310
F5F5F5F5F5F5F5F5F5F5E2E2E2E2E2E2E2E2E2E2E2F5F5F5F5F5E2E2E2E2E2E2E2E2E2E2E2F5E2F5F5E2E2E2E2E2E2E2F5F5F5F5F5F5F5F5F5F5F5F5F5F5F5F5F5F5F5F5F5F5F5F5F5F5F5F5F5F5E2F5F5F5F5F5F5F5F5F5F5F5F5F5F5E2F5F5F5F5F5F5F5F5F5F5F5E2E2E2F5F5F5F5F5F5F5F5F5F5F5E2F5F5F5F5F5F5F5
310
F5F5F5F5F5F5F5E2F5F5F5F5F5F5F5F5F5F5F5F5F5F5F5F5F5F5F5F5F5F5F5F5F5F5F5E2E2E2F5F5F5F5F5F5F5F5F5F5F5F5F5F5F5F5F5F5F5F5F5F5F5F5F5F5F5F5F5F5F5F5F5F5F5F5F5F5F5F5F5F5F5F5E2E2E2E2E2F5F5F5F5F5F5F5F5F5F5F5F5F5F5F5F5F5F5F5F5F5F5F5F5F5F5F5F5F5F5F5F5F5F5F5F5F5F5F5F5
310
F5F5F5F5E2F5F5F5F5F5F5F5F5F5F5F5F5F5F5E2F5F5F5F5F5F5F5F5F5F5F5E2E2E2F5F5F5F5F5F5F5F5F5F5F5E2F5F5F5F5F5F5F5F5F5F5F5F5F5F5E2F5F5F5F5F5F5F5F5F5F5F5F5F5F5F5F5F5F5F5F5F5F5F5F5F5F5F5E2E2E2F5F5F5F5F5F5F5F5F5F5F5F5F5E2E2E2E2F5F5F5F5F5F5F5F5F5F5F5F5E2E2E2E2F5F5F5
310
F5F5F5F5F5F5F5F5F5E2E2E2E2F5F5F5F5F5F5F5F5F5F5F5E2E2E2E2F5F5F5F5F5F5F5F5F5F5F5F5F5F5F5F5F5F5F5F5F5F5F5F5F5F5F5F5F5E2F5F5F5F5F5F5F5F5F5F5F5F5F5F5E2F5F5F5F5F5F5F5F5F5F5F5E2E2E2F5F5F5F5F5F5F5F5F5F5F5E2F5F5F5F5F5F5F5F5F5F5F5F5F5F5E2F5F5F5F5F5F5F5F5F5F5F5F5F5
310
F5F5F5F5F5F5F5F5E2E2E2E2E2E2E2E2E2E2E2E2E2F5F5F5F5E2E2E2E2E2E2E2E2E2E2E2E2F5F5F5F5F5F5E2E2E2E2E2E2E2E2E2E2F5F5F5F5F5E2E2E2E2E2E2E2E2E2E2E2F5F5F5F5F5E2E2E2E2E2E2E2E2E2F5F5F5F5F5F5F5F5F5F5F5F5F5F5F5F5F5F5F5F5F5F5F5F5F5F5F5E2F5F5F5F5F5F5F5F5F5F5F5F5F5F5E2F5
310
F5F5F5F5F5F5F5F5F5F5E2E2E2F5F5F5F5F5F5F5F5F5F5F5E2F5F5F5F5F5F5F5F5F5F5F5F5F5F5E2F5F5F5F5F5F5F5F5F5F5F5F5F5F5F5F5F5F5F5F5F5E2E2E2E2F5F5F5E2E2F5F5F5E2E2F5F5F5E2E2E2F5F5F5E2E2F5F5F5E2E2F5F5F5F5E2E2F5F5F5E2E2F5F5F5E2E2F5F5F5F5E2F5F5F5E2E2F5F5F5E2E2F5F5F5F5E2
310
E2F5F5F5E2E2E2F5E2E2F5F5F5F5F5F5F5F5F5F5F5F5F5F5F5F5F5F5F5F5F5F5F5F5F5F5E2F5F5F5F5F5F5F5F5F5F5F5F5F5F5E2F5F5F5F5F5F5F5F5F5F5F5E2E2E2F5F5F5F5F5F5F5F5F5F5F5E2F5F5F5F5F5F5F5F5F5F5F5F5F5F5E2F5F5F5F5F5F5F5F5F5F5F5F5F5F5F5F5F5F5F5F5F5E2E2E2F5E2E2F5E2F5E2E2F5E2
310
E2F5F5F5E2E2E2E2E2F5E2E2E2E2E2E2E2F5F5F5F5E2F5F5F5F5F5E2F5F5F5E2E2F5F5F5F5E2F5F5F5E2E2F5F5F5F5E2F5F5F5F5E2F5F5F5F5F5E2F5F5F5E2F5F5F5F5F5F5F5F5F5F5F5F5F5F5F5F5F5F5F5F5F5F5F5F5F5F5E2F5F5F5F5F5F5F5F5F5F5F5F5F5F5E2F5F5F5F5F5F5F5F5F5F5F5E2E2E2F5F5F5F5F5F5F5F5
310
F5F5F5E2F5F5F5F5F5F5F5F5F5F5F5F5F5F5E2F5F5F5F5F5F5F5F5F5F5F5F5F5F5F5F5F5F5F5F5F5E2E2E2F5E2E2F5E2F5E2E2E2E2E2F5F5F5E2E2E2E2E2E2E2E2E2E2E2E2E2F5F5F5F5E2F5F5F5F5F5E2E2E2E2E2E2F5F5F5F5E2F5E2E2E2E2F5F5F5F5E2F5F5F5F5E2F5F5F5F5F5E2E2E2E2E2F5F5F5F5F5F5F5F5F5F5F5
310
F5F5F5F5F5F5F5F5F5F5F5F5F5F5F5E2F5F5F5F5F5F5F5F5F5F5F5F5F5F5E2F5F5F5F5F5F5F5F5F5F5F5E2E2E2F5F5F5F5F5F5F5F5F5F5F5E2F5F5F5F5F5F5F5F5F5F5F5F5F5F5E2F5F5F5F5F5F5F5F5F5F5F5F5F5F5F5F5F5F5F5F5F5E2E2E2F5E2E2F5E2F5E2E2F5E2E2F5F5F5E2E2E2F5E2F5E2E2F5E2F5E2E2F5F5F5F5
310
E2F5E2E2E2F5E2E2E2E2E2E2F5F5F5F5E2E2E2E2E2E2F5E2E2F5E2F5F5F5F5E2F5E2E2E2F5E2E2E2E2E2F5F5F5F5F5F5F5F5F5F5F5F5F5F5F5F5F5F5F5F5F5F5F5F5F5F5E2F5F5F5F5F5F5F5F5F5F5F5F5F5F5E2F5F5F5F5F5F5F5F5F5F5F5E2E2E2F5F5F5F5F5F5F5F5F5F5F5E2F5F5F5F5F5F5F5F5F5F5F5F5F5F5E2F5F5
310
F5F5F5F5F5F5F5F5F5F5F5F5F5F5F5F5F5F5F5E2E2E2E2F5F5F5E2E2F5F5F5E2E2F5F5F5E2E2E2F5F5F5E2E2F5F5F5E2E2F5F5F5F5E2E2E2E2E2E2E2F5F5F5E2E2F5F5F5F5E2F5F5F5E2E2F5E2E2F5E2F5F5F5F5E2F5E2E2E2F5E2E2F5E2E2F5F5F5F5F5F5F5F5F5F5F5F5F5F5F5F5F5F5F5F5F5F5F5F5F5F5E2F5F5F5F5F5
310
F5F5F5F5F5F5F5F5F5E2F5F5F5F5F5F5F5F5F5F5F5E2E2E2F5F5F5F5F5F5F5F5F5F5F5E2F5F5F5F5F5F5F5F5F5F5F5F5F5F5E2F5F5F5F5F5F5F5F5F5F5F5F5F5F5F5F5F5F5F5F5F5E2E2E2E2E2E2E2E2E2E2E2E2E2E2F5F5F5E2E2E2E2E2E2E2E2E2E2E2E2E2F5F5F5F5E2E2E2E2E2E2E2E2E2E2E2F5F5F5F5F5E2E2E2E2E2
310
E2E2E2E2E2E2F5F5F5F5E2E2E2E2E2E2E2E2E2E2E2F5F5F5F5F5F5F5F5F5F5F5F5F5F5F5F5F5F5F5F5F5F5F5F5F5F5E2F5F5F5F5F5F5F5F5F5F5F5F5F5F5E2F5F5F5F5F5F5F5F5F5F5F5E2E2E2F5F5F5F5F5F5F5F5F5F5F5E2F5F5F5F5F5F5F5F5F5F5F5F5F5F5E2F5F5F5F5F5F5F5F5F5F5F5F5F5F5F5F5F5F5F5F5F5F5F5
310
E2E2E2E2E2E2E2E2E2E2E2E2F5F5F5F5E2E2E2E2E2E2E2E2E2E2E2E2F5F5F5F5F5E2E2E2E2E2F5F5F5F5F5F5F5F5F5F5F5F5F5F5F5F5E2E2E2E2F5F5F5F5F5F5E2E2E2E2E2F5F5F5F5F5F5F5F5F5F5F5F5F5F5F5F5F5F5F5F5F5F5F5F5F5F5F5F5F5F5F5E2F5F5F5F5F5F5F5F5F5F5F5F5F5F5E2F5F5F5F5F5F5F5F5F5F5F5
310
E2E2E2F5F5F5F5F5F5F5F5F5F5F5F5F5F5F5F5F5F5F5F5F5F5F5F5F5F5E2F5F5F5F5F5F5F5F5F5F5F5F5F5F5F5F5F5F5F5F5F5F5F5F5F5F5F5F5F5F5F5F5F5F5F5F5F5F5F5F5F5F5F5F5F5F5F5F5F5F5F5F5F5F5F5F5F5F5F5F5F5F5F5F5F5F5F5F5F5F5F5F5F5F5F5F5F5F5F5F5F5F5F5F5F5F5F5F5F5F5F5F5F5F5F5F5F5
310
F5F5F5F5F5F5F5F5F5F5F5F5F5F5F5F5F5F5F5F5F5F5F5F5F5F5E2F5F5F5F5F5F5F5F5F5F5F5F5F5F5F5F5F5F5F5F5F5F5F5F5F5F5E2E2E2F5F5F5F5F5F5F5F5F5F5F5F5F5F5F5F5F5F5F5F5F5F5F5F5F5F5E2F5F5F5F5F5F5F5F5F5F5F5F5F5F5F5F5F5F5E2E2E2E2E2E2E2E2E2E2E2E2E2E2E2E2E2E2E2E2E2E2E2E2E2E2
310
E2E2E2E2E2E2E2E2E2E2E2E2E2E2E2E2E2E2E2E2E2E2E2E2E2E2E2E2E2E2E2E2E2E2E2E2E2E2E2E2E2E2E2E2E2E2E2E2E2E2E2E2E2E2E2E2E2E2E2E2E2F5F5F5F5F5F5F5F5F5F5F5F5F5F5F5F5F5F5E2F5F5F5F5F5F5F5F5F5F5F5F5F5F5F5F5F5F5F5F5F5F5F5F5F5F5E2E2E2F5F5F5F5F5F5F5F5F5F5F5F5F5F5F5F5F5F5
310
F5F5F5F5F5F5F5F5E2F5F5F5F5F5F5F5F5F5F5F5F5F5F5F5F5F5F5F5F5F5F5F5F5F5F5F5F5F5F5F5F5F5F5F5F5F5F5F5F5F5F5F5F5F5F5F5F5F5F5F5F5F5F5F5F5F5F5F5F5F5F5F5F5F5F5F5F5F5F5F5F5F5F5F5F5F5F5F5F5F5F5F5F5F5F5F5F5F5F5F5F5F5F5F5F5F5F5F5F5F5F5F5F5F5F5F5F5F5F5F5F5F5F5F5F5F5F5
310
F5F5F5F5F5E2F5F5F5F5F5F5F5F5F5F5F5F5F5F5F5F5F5F5F5F5F5F5F5F5F5F5E2E2E2F5F5F5F5F5F5F5F5F5F5F5F5F5F5F5F5F5F5F5F5F5F5F5F5F5F5E2F5F5F5F5F5F5F5F5F5F5F5F5F5F5F5F5F5F5F5F5F5F5F5F5F5F5F5E2E2E2E2F5F5F5F5F5F5F5F5F5F5F5F5E2E2E2E2F5F5F5F5F5F5F5F5F5E2E2E2E2F5F5F5F5F5
310
F5F5F5E2E2E2F5F5F5F5F5F5F5F5F5F5E2E2E2E2F5F5F5F5F5F5F5E2E2E2E2F5F5F5F5F5F5F5F5F5F5F5F5F5F5F5F5F5F5F5F5F5F5F5F5F5F5F5E2F5F5F5F5F5F5F5F5F5F5F5F5F5F5F5F5F5F5F5F5F5F5F5F5F5F5E2E2E2F5F5F5F5F5F5F5F5F5F5F5F5F5F5F5F5F5F5F5F5F5F5F5F5F5F5E2F5F5F5F5F5F5F5F5F5F5F5F5
310
F5F5F5F5F5F5F5F5F5F5F5F5F5F5F5E2E2E2E2F5F5F5F5F5F5F5F5F5F5F5F5E2E2F5E2F5F5F5F5F5F5F5F5F5E2E2F5E2F5F5F5F5F5F5F5F5E2E2E2F5F5F5F5F5F5F5F5F5F5E2E2E2E2F5F5F5F5F5F5F5E2E2F5E2F5F5F5F5F5F5F5F5F5F5F5F5F5F5F5F5F5F5F5F5F5F5F5F5F5F5F5E2F5F5F5F5F5F5F5F5F5F5F5F5F5F5F5
310
F5F5F5F5F5F5F5F5F5F5F5E2E2E2F5F5F5F5F5F5F5F5F5F5F5F5F5F5F5F5F5F5F5F5F5F5F5F5F5F5E2F5F5F5F5F5F5F5F5F5F5F5F5F5F5F5F5F5F5F5F5F5F5E2E2E2E2E2E2E2E2E2E2E2E2F5F5F5E2E2E2E2E2E2E2E2E2E2E2E2E2F5F5F5E2E2E2E2E2E2E2E2E2F5F5E2E2E2E2E2E2E2E2E2E2F5F5E2E2E2E2E2E2E2E2E2E2
310
E2E2F5F5E2E2E2E2E2E2E2F5F5F5F5F5F5F5F5F5F5F5F5F5F5F5F5F5F5F5F5F5F5F5F5F5F5E2F5F5F5F5F5F5F5F5F5F5F5F5F5F5F5F5F5F5F5F5F5F5F5F5F5F5E2E2E2F5F5F5F5F5F5F5F5F5F5F5F5F5F5F5F5F5F5F5F5F5F5F5F5F5F5E2F5F5F5F5F5F5F5F5F5F5F5F5F5F5F5F5F5F5F5F5F5F5E2E2E2E2F5F5F5F5F5F5F5
310
E2F5F5F5E2E2E2F5F5F5F5F5F5F5E2E2E2F5F5F5E2E2F5F5F5F5E2E2E2F5F5E2E2E2F5F5F5E2E2E2E2F5F5E2F5E2F5F5F5F5E2E2E2E2E2F5E2E2E2F5F5E2E2E2F5F5F5F5F5F5F5F5F5F5F5F5F5F5F5F5F5F5F5F5F5F5F5F5F5F5E2F5F5F5F5F5F5F5F5F5F5F5F5F5F5F5F5F5F5F5F5F5F5F5F5F5F5E2E2E2F5F5F5F5F5F5F5
310
F5F5F5F5F5F5F5F5F5F5F5F5F5F5F5F5F5F5F5E2F5F5F5F5F5F5F5F5F5F5F5F5F5F5F5F5F5F5F5F5F5F5E2E2F5E2E2E2F5F5F5F5F5E2F5F5F5E2E2E2F5F5F5F5F5E2E2E2F5E2F5F5F5E2E2F5F5E2E2E2F5E2F5F5E2E2E2F5F5E2E2F5F5E2F5F5E2F5E2F5F5F5F5E2E2F5F5E2F5E2E2E2F5E2E2F5E2F5F5F5F5F5F5F5F5F5F5
310
F5F5F5F5F5F5F5F5F5F5F5F5F5F5F5F5E2F5F5F5F5F5F5F5F5F5F5F5F5F5F5F5F5F5F5F5F5F5F5F5F5F5F5E2E2E2F5F5F5F5F5F5F5F5F5F5F5E2F5F5F5F5F5F5F5F5F5F5F5F5F5F5E2F5F5F5F5F5F5F5F5F5F5F5F5F5F5F5F5F5F5F5F5F5F5E2E2F5F5E2E2F5F5F5F5F5E2F5F5F5E2E2E2F5F5F5F5F5E2E2F5F5E2F5F5F5E2
310
E2F5F5F5F5F5F5E2F5F5E2E2E2F5F5F5F5F5F5E2F5F5E2F5E2F5F5F5F5F5F5F5F5E2F5E2E2E2F5F5F5F5E2F5F5F5F5F5F5F5F5F5F5F5F5F5F5F5F5F5F5F5F5F5F5F5F5F5F5E2F5F5F5F5F5F5F5F5F5F5F5F5F5F5E2F5F5F5F5F5F5F5F5F5F5F5E2E2E2F5F5F5F5F5F5F5F5F5F5F5E2F5F5F5F5F5F5F5F5F5F5F5F5F5F5E2F5
310
F5F5F5F5F5F5F5F5F5F5F5F5F5F5F5F5F5F5F5F5F5E2E2F5F5E2E2E2F5F5F5F5E2F5F5F5E2E2E2F5F5F5F5F5F5F5F5F5E2F5F5F5E2E2F5F5F5F5F5F5E2F5F5E2E2E2F5F5F5F5F5F5E2F5F5E2F5E2F5F5F5F5F5F5F5F5E2F5E2E2E2F5F5F5F5E2F5F5F5F5F5F5F5F5F5F5F5F5F5F5F5F5F5F5F5F5F5F5F5F5F5F5E2F5F5F5F5
310
F5F5F5F5F5F5F5F5F5F5E2F5F5F5F5F5F5F5F5F5F5F5E2E2E2F5F5F5F5F5F5F5F5F5F5F5E2F5F5F5F5F5F5F5F5F5F5F5F5F5F5E2F5F5F5F5F5F5F5F5F5F5F5F5F5F5F5F5F5F5F5F5F5F5E2E2F5F5E2E2E2E2E2E2E2E2F5F5F5E2E2E2F5F5F5F5F5F5F5F5F5E2F5F5F5E2E2E2E2E2E2E2E2E2F5F5E2E2E2E2E2E2E2E2E2E2F5
310
F5E2F5E2F5F5F5F5F5F5F5F5E2F5E2E2E2F5F5F5F5E2F5F5F5F5F5F5F5F5F5F5F5F5F5F5F5F5F5F5F5F5F5F5F5F5F5F5E2F5F5F5F5F5F5F5F5F5F5F5F5F5F5E2F5F5F5F5F5F5F5F5F5F5F5E2E2E2F5F5F5F5F5F5F5F5F5F5F5E2F5F5F5F5F5F5F5F5F5F5F5F5F5F5E2F5F5F5F5F5F5F5F5F5F5F5F5F5F5F5F5F5F5F5F5F5F5
310
E2E2E2E2E2E2E2E2E2E2E2E2F5F5F5E2E2E2E2E2E2E2E2E2E2E2E2E2F5F5F5F5E2E2F5F5F5F5F5E2F5F5F5F5E2F5F5F5F5F5F5E2F5F5E2E2E2E2E2E2E2E2E2E2E2E2F5F5E2E2E2E2E2E2E2F5F5F5F5F5F5F5F5F5F5F5F5F5F5F5F5F5F5F5F5F5F5F5F5F5F5E2F5F5F5F5F5F5F5F5F5F5F5F5F5F5E2F5F5F5F5F5F5F5F5F5F5
310
F5E2E2E2F5F5F5F5F5F5F5F5F5F5F5E2F5F5F5F5F5F5F5F5F5F5F5F5F5F5E2F5F5F5F5F5F5F5F5F5F5F5F5F5F5F5F5F5F5F5F5F5F5F5E2E2E2E2E2E2E2E2E2E2E2F5F5F5F5F5E2E2E2E2E2E2E2E2E2E2E2F5F5F5F5E2E2E2E2E2E2E2E2F5F5F5F5E2E2E2E2E2E2E2E2F5F5F5F5E2E2E2E2E2E2E2E2E2E2F5F5F5E2E2E2E2E2
310
E2F5F5F5F5F5F5F5F5F5F5F5F5F5F5F5F5F5F5F5F5F5F5F5F5F5F5E2F5F5F5F5F5F5F5F5F5F5F5F5F5F5E2F5F5F5F5F5F5F5F5F5F5F5E2E2E2F5F5F5F5F5F5F5F5F5F5F5E2F5F5F5F5F5F5F5F5F5F5F5F5F5F5E2F5F5F5F5F5F5F5F5F5F5F5F5F5F5F5F5F5F5F5F5F5F5F5E2F5F5E2E2E2E2E2F5F5E2F5F5F5F5F5F5F5F5F5
310
F5F5F5F5F5F5F5F5F5F5F5F5F5F5F5F5F5F5F5F5F5F5F5F5F5F5F5F5F5F5F5F5F5F5F5F5F5F5F5F5F5F5F5F5F5F5F5F5F5E2E2E2E2F5F5F5F5F5F5F5F5F5F5F5F5F5F5F5F5F5F5F5F5F5F5F5F5F5F5F5E2F5F5F5F5F5F5F5F5F5F5F5F5F5F5E2F5F5F5F5F5F5F5F5F5F5F5E2E2E2F5F5F5F5F5F5F5F5F5F5F5E2F5F5F5F5F5
310
F5F5F5F5F5F5F5F5F5E2F5F5F5F5F5F5F5F5F5F5F5F5F5F5F5F5F5F5F5F5F5F5F5F5F5F5F5F5E2F5F5F5F5F5F5F5F5F5F5F5F5F5F5F5F5F5F5F5F5F5F5F5F5F5F5F5F5F5F5F5F5F5F5F5F5F5F5F5F5F5F5F5F5F5F5F5F5F5F5F5F5F5F5F5F5F5F5F5F5F5F5F5F5F5F5F5F5F5F5F5F5F5F5F5F5F5F5F5F5F5F5F5F5F5F5F5F5
310
F5F5F5F5F5F5E2F5F5F5F5F5F5F5F5F5F5F5F5F5F5E2F5F5F5F5F5F5F5F5F5F5F5E2E2E2F5F5F5F5F5F5F5F5F5F5F5E2F5F5F5F5F5F5F5F5F5F5F5F5F5F5E2F5F5F5F5F5F5F5F5F5F5F5F5F5F5F5F5F5F5F5F5F5F5F5F5F5F5F5E2E2E2E2F5F5F5F5F5F5F5F5F5F5F5F5E2E2F5E2F5F5F5F5F5F5F5F5F5E2E2F5E2F5F5F5F5
310
F5F5F5F5E2E2E2F5F5F5F5F5F5F5F5F5F5E2E2E2E2F5F5F5F5F5F5F5E2E2F5E2F5F5F5F5F5F5F5F5F5F5F5F5F5F5F5F5F5F5F5F5F5F5F5F5F5F5F5E2F5F5F5F5F5F5F5F5F5F5F5F5F5F5E2F5F5F5F5F5F5F5F5F5F5F5E2E2E2F5F5F5F5F5F5F5F5F5F5F5E2F5F5F5F5F5F5F5F5F5F5F5F5F5F5E2F5F5F5F5F5F5F5F5F5F5F5
310
F5F5F5F5F5F5F5F5F5F5F5E2E2E2E2E2E2E2E2E2E2E2E2F5F5F5E2E2E2E2E2E2E2E2E2E2E2E2E2F5F5E2E2E2E2E2E2E2E2E2E2F5F5E2E2E2E2E2E2E2E2E2E2F5E2E2E2E2E2E2E2E2E2E2E2E2E2F5F5E2E2E2E2E2E2E2F5F5F5F5F5F5F5F5F5F5F5F5F5F5F5F5F5F5F5F5F5F5F5F5F5F5E2F5F5F5F5F5F5F5F5F5F5F5F5F5F5
310
E2F5F5F5F5F5F5F5F5F5F5F5E2E2E2F5F5F5F5F5F5F5F5F5F5F5E2F5F5F5F5F5F5F5F5F5F5F5F5F5F5E2F5F5F5F5F5F5F5F5F5F5F5F5F5F5F5F5F5F5F5F5F5F5E2E2F5E2E2E2E2E2F5F5F5E2E2F5F5E2E2E2E2F5F5F5E2F5E2E2E2E2F5F5E2E2E2E2F5F5E2E2E2E2F5F5E2E2E2F5F5E2E2E2E2E2F5F5E2E2E2F5F5F5F5E2E2
310
E2E2E2F5F5E2E2F5F5E2E2E2E2F5F5F5F5F5F5F5F5F5F5F5F5F5F5F5F5F5F5F5F5F5F5F5F5F5E2F5F5F5F5F5F5F5F5F5F5F5F5F5F5E2F5F5F5F5F5F5F5F5F5F5F5E2E2E2F5F5F5F5F5F5F5F5F5F5F5E2F5F5F5F5F5F5F5F5F5F5F5F5F5F5E2F5F5F5F5F5F5F5F5F5F5F5F5F5F5F5F5F5F5F5F5F5E2E2E2E2E2E2E2E2E2F5E2
310
E2E2E2F5F5E2E2E2E2F5F5F5E2E2E2E2F5E2F5F5E2E2E2E2F5E2E2E2F5E2F5F5E2E2E2F5F5E2E2E2F5E2F5E2E2E2E2F5F5F5E2E2E2F5F5E2F5F5E2E2F5E2E2F5E2E2F5F5F5F5F5F5F5F5F5F5F5F5F5F5F5F5F5F5F5F5F5F5F5F5F5E2F5F5F5F5F5F5F5F5F5F5F5F5F5F5E2F5F5F5F5F5F5F5F5F5F5F5E2E2E2F5F5F5F5F5F5
310
F5F5F5F5F5E2F5F5F5F5F5F5F5F5F5F5F5F5F5F5E2F5F5F5F5F5F5F5F5F5F5F5F5F5F5F5F5F5F5F5F5F5E2E2E2E2E2E2F5E2E2E2E2E2E2E2F5F5E2E2E2E2E2E2F5E2F5E2E2F5E2F5F5E2E2E2E2F5E2E2F5F5E2F5F5E2E2E2F5E2E2E2F5F5E2F5E2E2E2E2F5F5E2E2E2F5F5F5E2F5F5E2E2F5E2E2F5E2E2F5F5F5F5F5F5F5F5
310
F5F5F5F5F5F5F5F5F5F5F5F5F5F5F5F5F5E2F5F5F5F5F5F5F5F5F5F5F5F5F5F5E2F5F5F5F5F5F5F5F5F5F5F5E2E2E2F5F5F5F5F5F5F5F5F5F5F5E2F5F5F5F5F5F5F5F5F5F5F5F5F5F5E2F5F5F5F5F5F5F5F5F5F5F5F5F5F5F5F5F5F5F5F5F5E2E2E2E2E2E2E2E2E2E2E2E2E2E2F5F5E2E2E2E2E2E2F5E2F5E2E2F5E2F5F5E2
310
E2E2E2F5E2E2F5F5E2F5F5E2E2E2F5F5E2E2F5F5E2F5E2E2E2E2F5F5F5E2E2F5F5F5E2F5F5E2E2F5E2E2F5E2E2F5F5F5F5F5F5F5F5F5F5F5F5F5F5F5F5F5F5F5F5F5F5F5F5F5E2F5F5F5F5F5F5F5F5F5F5F5F5F5F5E2F5F5F5F5F5F5F5F5F5F5F5E2E2E2F5F5F5F5F5F5F5F5F5F5F5E2F5F5F5F5F5F5F5F5F5F5F5F5F5F5E2
310
F5F5F5F5F5F5F5F5F5F5F5F5F5F5F5F5F5F5F5F5F5E2E2E2E2E2F5F5E2E2F5F5E2E2E2F5F5E2E2E2E2F5F5F5E2F5F5F5F5E2F5F5E2E2E2E2F5F5F5F5F5E2F5F5E2E2E2F5F5F5F5F5F5E2F5F5E2E2E2F5F5F5F5F5F5F5F5E2F5F5E2E2F5F5F5F5E2E2F5F5F5F5F5F5F5F5F5F5F5F5F5F5F5F5F5F5F5F5F5F5F5F5F5E2F5F5F5
310
F5F5F5F5F5F5F5F5F5F5F5E2F5F5F5F5F5F5F5F5F5F5F5E2E2E2F5F5F5F5F5F5F5F5F5F5F5E2F5F5F5F5F5F5F5F5F5F5F5F5F5F5E2F5F5F5F5F5F5F5F5F5F5F5F5F5F5F5F5F5F5F5F5F5F5E2E2F5E2F5F5E2E2E2E2E2E2E2F5F5E2E2E2E2E2E2E2E2E2E2E2E2E2F5F5E2E2E2E2E2E2E2E2E2E2F5F5E2E2E2E2E2E2E2E2E2E2
310
F5E2E2E2E2E2E2E2E2E2E2E2E2E2F5F5E2E2E2E2E2E2E2E2F5F5F5F5F5F5F5F5F5F5F5F5F5F5F5F5F5F5F5F5F5F5F5F5F5E2F5F5F5F5F5F5F5F5F5F5F5F5F5F5E2F5F5F5F5F5F5F5F5F5F5F5E2E2E2F5F5F5F5F5F5F5F5F5F5F5F5F5F5F5F5F5F5F5F5F5F5F5F5F5F5E2F5F5F5F5F5F5F5F5F5F5F5F5F5F5F5F5F5F5F5F5F5
310
F5E2E2E2E2E2E2E2E2F5F5F5E2E2F5F5F5E2E2E2E2E2E2E2E2E2E2E2E2F5F5F5F5E2E2E2E2E2E2E2E2F5F5F5E2E2E2E2E2E2E2E2E2F5F5F5E2E2E2E2E2E2E2E2E2E2E2F5F5F5E2E2E2E2E2E2E2F5F5F5F5F5F5F5F5F5F5F5F5F5F5F5F5F5F5F5F5F5F5F5F5F5E2F5F5F5F5F5F5F5F5F5F5F5F5F5F5F5F5F5F5F5F5F5F5F5F5
310
F5F5E2E2E2F5F5F5F5F5F5F5F5F5F5F5F5F5F5F5F5F5F5F5F5F5F5F5F5F5F5E2F5F5F5F5F5F5F5F5F5F5F5F5F5F5F5F5F5F5F5F5F5F5F5E2E2E2E2E2E2E2E2E2E2E2E2F5F5F5E2E2E2E2E2E2E2E2E2E2E2E2F5F5F5F5F5F5F5E2E2E2F5F5F5F5F5E2F5E2E2E2E2E2F5E2F5F5F5E2F5F5F5E2E2E2F5F5F5E2F5F5F5E2E2E2E2
310
E2E2E2F5F5F5F5F5F5F5F5F5F5F5F5F5F5F5F5F5F5F5F5F5F5F5F5F5E2F5F5F5F5F5F5F5F5F5F5F5F5F5F5F5F5F5F5F5F5F5F5F5F5F5F5E2E2E2F5F5F5F5F5F5F5F5F5F5F5F5F5F5F5F5F5F5F5F5F5F5F5F5F5F5E2F5F5F5F5F5F5F5F5F5F5F5F5F5F5F5F5F5F5F5F5F5F5F5E2E2E2E2E2E2E2E2E2E2E2E2F5F5F5E2F5F5F5
310
F5E2E2E2F5F5F5E2F5F5F5F5F5F5F5F5F5F5F5F5F5F5F5F5F5F5F5F5F5F5F5F5F5F5F5F5F5F5F5F5F5F5F5F5F5F5F5F5F5F5F5F5F5F5F5F5F5F5F5F5F5F5F5F5F5F5F5F5F5F5F5F5F5F5F5F5F5F5F5F5F5E2F5F5F5F5F5F5F5F5F5F5F5F5F5F5F5F5F5F5F5F5F5F5F5F5F5F5E2E2E2F5F5F5F5F5F5F5F5F5F5F5F5F5F5F5F5
310
F5F5F5F5F5F5F5F5F5F5E2F5F5F5F5F5F5F5F5F5F5F5F5F5F5F5F5F5F5F5F5F5F5F5F5F5F5F5F5F5F5F5F5F5F5F5F5F5F5F5F5F5F5F5F5F5F5F5F5F5F5F5F5F5F5F5F5F5F5F5F5F5F5F5F5F5F5F5F5F5F5F5F5F5F5F5F5F5F5F5F5F5F5F5F5F5F5F5F5F5F5F5F5F5F5F5F5F5F5F5F5F5F5F5F5F5F5F5F5F5F5F5F5F5F5F5F5
310
F5F5F5F5F5F5F5E2F5F5F5F5F5F5F5F5F5F5F5F5F5F5F5F5F5F5F5F5F5F5F5F5F5F5E2E2E2F5F5F5F5F5F5F5F5F5F5F5F5F5F5F5F5F5F5F5F5F5F5F5F5F5F5E2E2E2E2E2E2E2E2E2E2E2E2E2E2E2E2E2E2E2E2E2E2E2E2E2E2E2E2E2E2E2E2E2E2E2E2E2E2E2E2E2E2E2E2E2E2E2E2E2E2E2E2E2E2E2E2E2E2E2E2E2E2E2E2
310
E2E2E2E2E2E2E2E2E2E2E2E2E2E2E2E2E2E2E2E2E2E2E2E2E2E2E2E2E2E2E2E2E2E2E2E2E2E2E2E2E2E2E2E2E2E2E2E2E2E2E2E2E2E2E2E2E2E2E2E2E2F5F5F5F5F5F5F5F5F5F5F5F5F5F5F5F5F5F5F5F5F5F5F5F5F5F5E2E2E2F5F5F5F5F5F5F5F5F5F5F5F5F5F5F5F5F5F5F5F5F5F5F5F5F5F5F5F5F5F5F5F5F5F5F5F5F5
310
F5F5F5F5F5F5F5F5F5F5F5F5F5F5F5F5F5F5F5F5F5F5F5F5F5F5F5F5F5F5F5F5F5F5F5F5F5F5F5F5F5F5F5F5F5F5F5F5F5F5F5F5F5F5F5F5F5F5F5F5F5F5F5F5F5F5F5F5F5F5F5F5F5F5F5F5F5F5F5F5F5F5F5F5F5F5F5F5F5F5F5F5F5F5F5F5F5F5F5F5F5F5F5F5F5F5F5F5F5F5F5F5F5F5F5F5F5F5F5F5F5F5F5F5F5F5F5
310
F5F5F5F5F5F5F5F5F5F5F5F5F5E2E2E2F5F5F5F5F5F5F5F5F5F5F5F5F5F5F5F5F5F5F5F5F5F5F5F5F5F5F5F5F5F5F5F5F5F5F5F5F5F5F5F5F5F5F5F5F5F5F5F5F5F5F5F5F5F5F5F5F5F5F5F5F5F5F5F5F5F5F5F5F5F5F5F5F5F5F5F5F5F5F5F5F5F5F5F5F5F5F5F5F5F5F5F5F5F5F5F5F5F5F5F5F5F5F5F5F5F5F5F5F5F5F5
310
F5F5F5F5F5F5F5F5F5F5F5F5F5F5F5F5F5F5F5F5F5F5F5F5F5F5F5F5F5F5F5F5F5F5F5F5F5F5F5F5F5F5F5F5F5F5F5F5F5F5F5F5F5F5F5F5F5F5F5F5F5F5F5F5F5F5E2E2E2F5F5F5F5F5F5F5F5F5F5F5F5F5F5F5F5F5F5F5F5F5F5F5F5F5F5F5F5F5F5F5F5F5F5F5F5F5F5F5F5F5F5F5F5F5F5F5F5F5F5F5F5F5F5F5F5F5F5
310
F5F5F5F5F5F5F5F5F5F5F5F5F5F5F5F5F5F5F5F5F5F5F5F5F5F5F5F5F5F5F5F5F5F5F5F5F5F5F5F5F5F5F5F5F5F5F5F5F5F5F5F5F5F5F5F5F5F5F5F5F5F5F5F5F5F5F5F5F5F5F5F5F5F5F5F5F5F5F5F5F5F5F5F5F5F5F5F5F5F5F5F5F5F5F5F5F5F5F5F5F5F5F5F5F5F5F5F5F5F5F5F5F5F5F5F5F5F5F5E2E2E2F5F5F5F5F5
310
F5F5F5F5F5F5E2F5F5F5F5F5F5F5F5F5F5F5F5F5F5F5F5F5F5F5F5F5F5F5F5F5F5F5F5F5F5F5F5F5F5F5F5F5F5F5F5F5F5F5F5F5F5F5F5F5F5F5F5F5F5F5F5F5F5F5F5F5F5F5F5F5F5F5F5F5F5F5F5F5F5F5F5F5F5F5F5F5F5F5F5F5F5F5F5F5F5F5F5F5F5F5F5F5F5F5F5F5F5F5F5F5F5F5F5F5F5F5F5F5F5F5F5F5F5F5F5
310
F5F5F5F5F5F5F5F5F5F5F5F5F5F5F5F5F5F5F5F5F5F5F5F5F5F5F5F5F5F5F5F5F5E2F5F5F5F5F5F5F5F5F5F5F5E2E2E2F5F5F5F5F5F5F5F5F5F5F5E2F5F5F5F5F5F5F5F5F5F5F5F5F5F5F5F5F5F5F5F5F5F5F5F5F5F5F5F5F5F5F5F5F5F5F5F5F5F5F5F5F5F5F5F5F5F5F5F5F5F5F5F5F5F5F5F5F5F5F5F5F5F5F5F5F5F5F5
310
F5F5F5F5F5F5F5F5F5F5F5F5F5F5F5F5F5F5F5F5F5F5F5F5F5F5F5F5F5F5F5F5F5F5F5F5F5F5F5F5F5F5F5F5F5F5F5F5F5F5F5F5F5F5F5F5F5F5F5F5F5F5F5F5F5F5F5F5F5F5F5F5F5F5F5F5F5F5F5F5F5F5F5F5F5F5E2F5F5F5F5F5F5F5F5F5F5F5E2E2E2F5F5F5F5F5F5F5F5F5F5F5E2F5F5F5F5F5F5F5F5F5F5F5F5F5F5
310
F5F5F5F5F5F5F5F5F5F5F5F5F5F5F5F5F5F5F5F5F5F5F5F5F5F5F5F5F5F5F5F5F5F5F5F5F5F5F5F5F5F5F5F5F5F5F5F5F5F5F5F5F5F5F5F5F5F5F5F5F5F5F5F5F5F5F5F5F5F5F5F5F5F5F5F5F5F5F5F5F5F5F5F5F5F5F5F5F5F5F5F5F5F5F5F5F5F5F5F5F5F5F5F5F5F5F5F5F5F5F5F5F5F5F5F5F5F5F5F5F5F5F5F5F5F5F5
310
F5F5F5F5F5F5F5F5F5F5F5F5E2F5F5F5F5F5F5F5F5F5F5F5E2E2E2F5F5F5F5F5F5F5F5F5F5F5E2F5F5F5F5F5F5F5F5F5F5F5F5F5F5F5F5F5F5F5F5F5F5F5F5F5F5F5F5F5F5F5F5F5F5F5F5F5F5F5F5F5F5F5F5F5F5F5F5F5F5F5F5F5F5F5F5F5F5F5F5F5F5F5F5F5F5F5F5F5F5F5F5F5F5F5F5F5F5F5F5F5F5F5F5F5F5F5F5
310
F5F5F5F5F5F5F5F5F5F5F5F5F5F5F5F5F5F5F5F5F5F5F5F5F5F5F5F5F5F5F5F5F5F5F5F5F5F5F5F5F5F5F5F5F5F5F5F5F5F5F5F5F5F5F5F5F5F5F5F5F5F5F5F5F5E2F5F5F5F5F5F5F5F5F5F5F5E2E2E2F5F5F5F5F5F5F5F5F5F5F5E2F5F5F5F5F5F5F5F5F5F5F5F5F5F5F5F5F5F5F5F5F5F5F5F5F5F5F5F5F5F5F5F5F5F5F5
310
F5F5F5F5F5F5F5F5F5F5F5F5F5F5F5F5F5F5F5F5F5F5F5F5F5F5F5F5F5F5F5F5F5F5F5F5F5F5F5F5F5F5F5F5F5F5F5F5F5F5F5F5F5F5F5F5F5F5F5F5F5F5F5F5F5F5F5F5F5F5F5F5F5F5F5F5F5F5F5F5F5F5F5F5F5F5F5F5F5F5F5F5F5F5F5F5F5F5F5F5F5F5F5F5F5F5F5F5F5F5F5F5F5F5F5F5F5F5E2F5F5F5F5F5F5F5F5
310
F5F5F5E2E2E2F5F5F5F5F5F5F5F5F5F5F5E2F5F5F5F5F5F5F5F5F5F5F5F5F5F5F5F5F5F5F5F5F5F5F5F5F5F5F5F5F5F5F5F5F5F5F5F5F5F5F5F5F5F5F5F5F5F5F5F5F5F5F5F5F5F5F5F5F5F5F5F5F5F5F5F5F5F5F5F5F5F5F5F5F5F5F5F5F5F5F5F5F5F5F5F5F5F5F5F5F5F5F5F5F5F5F5F5F5F5F5F5F5F5F5F5F5F5F5F5F5
310
F5F5F5F5F5F5F5F5F5F5F5F5F5F5F5F5F5F5F5F5F5F5F5F5F5F5F5F5F5F5F5F5F5F5F5F5F5F5F5F5F5F5F5F5E2F5F5F5F5F5F5F5F5F5F5F5E2E2E2F5F5F5F5F5F5F5F5F5F5F5E2F5F5F5F5F5F5F5F5F5F5F5F5F5F5F5F5F5F5F5F5F5F5F5F5F5F5F5F5F5F5F5F5F5F5F5F5F5F5F5F5F5F5F5F5F5F5F5F5F5F5F5F5F5F5F5F5
310
F5F5F5F5F5F5F5F5F5F5F5F5F5F5F5F5F5F5F5F5F5F5F5F5F5F5F5F5F5F5F5F5F5F5F5F5F5F5F5F5F5F5F5F5F5F5F5F5F5F5F5F5F5F5F5F5F5F5F5F5F5F5F5F5F5F5F5F5F5F5F5F5F5F5F5F5F5F5F5F5F5F5F5F5F5F5F5F5F5F5F5F5F5F5F5F5F5E2F5F5F5F5F5F5F5F5F5F5F5E2E2E2F5F5F5F5F5F5F5F5F5F5F5E2E2E2E2
310
E2E2E2E2E2F5F5F5F5F5F5F5F5F5E2E2E2E2E2E2E2E2E2E2E2E2E2E2E2E2F5F5F5F5F5F5F5F5F5F5E2E2E2E2E2E2E2E2E2E2E2E2E2E2E2E2F5F5F5F5F5F5F5F5F5E2E2E2E2E2E2E2E2E2E2E2E2E2E2E2E2E2F5F5F5F5F5F5F5F5F5E2E2E2E2E2E2E2E2E2E2E2E2E2E2E2E2F5F5F5F5F5F5F5F5F5F5E2E2E2E2E2E2E2E2E2E2
310
E2E2E2E2E2E2F5F5F5F5F5F5F5F5F5E2E2E2E2E2E2E2E2E2F5F5F5F5F5F5F5F5F5F5F5E2E2E2F5F5F5F5F5F5F5F5F5F5F5F5F5F5F5F5F5F5F5F5F5F5F5F5F5F5F5F5F5F5F5F5F5F5F5F5F5F5F5F5F5F5F5F5F5F5F5F5F5F5F5F5F5F5F5F5F5F5F5F5F5F5F5F5F5F5F5F5F5F5F5F5F5F5F5F5F5F5F5F5F5F5F5F5F5F5F5F5F5
310
F5F5F5F5F5F5F5F5F5F5F5F5F5F5F5F5F5F5F5F5F5F5F5F5F5F5F5F5F5F5F5F5F5F5F5F5F5F5F5F5F5F5F5F5F5F5F5F5F5F5F5F5F5F5F5F5F5F5F5F5F5F5F5F5F5F5F5F5F5F5F5F5F5F5F5F5F5F5F5F5F5F5F5F5F5F5F5F5E2E2E2F5F5F5F5F5F5F5F5F5F5F5F5F5F5F5F5F5F5F5F5F5F5F5F5F5F5F5F5F5F5F5F5F5F5F5F5
310
F5F5F5F5F5F5F5F5F5F5F5F5F5F5F5F5F5F5F5F5F5F5F5F5F5F5F5F5F5F5F5F5F5F5F5F5F5F5F5F5F5F5F5F5F5F5F5F5F5F5F5F5F5F5F5F5F5F5F5F5F5F5F5F5F5F5F5F5F5F5F5F5F5F5F5F5F5F5F5F5F5F5F5F5F5F5F5F5F5F5F5F5F5F5F5F5F5F5F5F5F5F5F5F5F5F5F5F5F5F5F5F5F5F5F5F5F5F5F5F5F5F5F5F5F5F5F5
310
F5F5F5F5F5F5F5F5F5F5F5F5F5F5E2E2E2F5F5F5F5F5F5F5F5F5F5F5F5F5F5F5F5F5F5F5F5F5F5F5F5F5F5F5F5F5F5F5F5F5F5F5F5F5F5F5F5F5F5F5F5F5F5F5F5F5F5F5F5F5F5F5F5F5F5F5F5F5F5F5F5F5F5F5F5F5F5F5F5F5F5F5F5F5F5F5F5F5F5F5F5F5F5F5F5F5F5F5F5F5F5F5F5F5F5F5F5F5F5F5F5F5F5F5F5F5F5
310
F5F5F5F5F5F5F5F5F5F5F5F5F5F5F5F5F5F5F5F5F5F5F5F5F5F5F5F5F5F5F5F5F5F5F5F5F5F5F5F5F5F5F5F5F5F5F5F5F5F5F5F5F5F5F5F5F5F5F5F5F5F5F5F5F5F5F5E2E2E2F5F5F5F5F5F5F5F5F5F5F5F5F5F5F5F5F5F5F5F5F5F5F5F5F5F5F5F5F5F5F5F5F5F5F5F5F5F5F5F5F5F5F5F5F5F5F5F5F5F5F5F5F5F5F5F5F5
310
F5F5F5F5F5F5F5F5F5F5F5F5F5F5F5F5F5F5F5F5F5F5F5F5F5F5F5F5F5F5F5F5F5F5F5F5F5F5F5F5F5F5F5F5F5F5F5F5F5F5F5F5F5F5F5F5F5F5F5F5F5F5F5F5F5F5F5F5F5F5F5F5F5F5F5F5F5F5F5F5F5F5F5F5F5F5F5F5F5F5F5F5F5F5F5F5F5F5F5F5F5F5F5F5F5F5F5F5F5F5F5F5F5F5F5F5F5F5F5F5E2EFE2E2E2E2E2
310
E2E2E2E2E2E2E2E2E2E2E2E2E2E2E2E2E2E2E2E2E2E2E2E2E2E2E2E2E2E2E2E2E2E2E2E2E2E2E2E2E2E2E2E2E2E2E2E2E2E2E2E2E2E2E2E2E2E2E2E2E2E2E2E2E2E2E2E2E2E2E2E2E2E2E2E2E2E2E2E2E2E2E2E2E2E2E2E2E2E2E2E2E2E2E2E2E2E2E2E2E2E2E2E2E2E2E2E2E2E2E2E2E2E2E2E2E2E2E2E2E2E2E2E2E2E2E2
310
E2E2E2E2E2E2E2E2E2E2E2E2E2E2E2E2E2E2E2E2E2E2E2E2E2E2E2E2E2E2E2E2E2E2E2E2E2E2E2E2E2E2E2E2E2E2E2EF
  0
XRECORD
  5
82F9
102
{ACAD_REACTORS
330
82F8
102
}
330
82F8
100
AcDbXrecord
280
     1
102
MATERIAL
148
0.0
149
0.0
149
0.0
 93
        0
 94
       63
282
     0
 72
     1
 77
     1
171
     1
175
     1
179
     1
273
     0
  0
XRECORD
  5
82F7
102
{ACAD_REACTORS
330
82F6
102
}
330
82F6
100
AcDbXrecord
280
     1
102
MATERIAL
148
0.0
149
0.0
149
0.0
 93
        0
 94
       63
282
     0
 72
     1
 77
     1
171
     1
175
     1
179
     1
273
     0
  0
XRECORD
  5
82FB
102
{ACAD_REACTORS
330
82FA
102
}
330
82FA
100
AcDbXrecord
280
     1
102
MATERIAL
148
0.0
149
0.0
149
0.0
 93
        0
 94
       63
282
     0
 72
     1
 77
     1
171
     1
175
     1
179
     1
273
     0
  0
XRECORD
  5
82F5
102
{ACAD_REACTORS
330
82F4
102
}
330
82F4
100
AcDbXrecord
280
     1
102
ACAD_ROUNDTRIP_PRE2007_TABLESTYLE
 90
      512
 91
        0
  1

 92
      512
 93
        0
  2

 94
      512
 95
        0
  3

  0
ENDSEC
  0
EOF
